<?xml version="1.0" standalone="no"?>
<!DOCTYPE svg PUBLIC "-//W3C//DTD SVG 1.1//EN" "http://www.w3.org/Graphics/SVG/1.1/DTD/svg11.dtd" >
<svg xmlns="http://www.w3.org/2000/svg" xmlns:xlink="http://www.w3.org/1999/xlink" version="1.1">
<metadata>
Created by FontForge 20201107 at Thu Jul 18 10:21:21 2024
 By 
Copyright (c) 2014 Monotype GmbH. All rights reserved.
</metadata>
<defs>
<font id="UniversLTCYR-67BoldCond" horiz-adv-x="1024" >
  <font-face 
    font-family="Univers LT CYR 47 Lt Cn"
    font-weight="700"
    font-stretch="condensed"
    units-per-em="2048"
    panose-1="2 11 8 6 3 5 2 4 2 4"
    ascent="1638"
    descent="-410"
    x-height="1034"
    cap-height="1479"
    bbox="-164 -463 2048 1985"
    underline-thickness="102"
    underline-position="-204"
    unicode-range="U+000D-FB04"
  />
<missing-glyph horiz-adv-x="1048" 
d="M0 1470h1049v-1470h-1049v1470zM102 102h844v1264h-844v-1264zM784 979q0 -46 -10.5 -83t-32 -67t-41 -50.5t-52 -50.5t-50.5 -50q-22 -25 -31.5 -53t-9.5 -82v-66h-100v80q0 59 23 109.5t55.5 85.5t65.5 68t56 71.5t23 79.5q0 73 -46 123.5t-110 50.5q-67 0 -112 -47.5
t-56 -147.5l-102 17q13 142 87 211t189 69q112 0 183 -73.5t71 -194.5zM444 240v137h125v-137h-125z" />
    <glyph glyph-name="IJ" unicode="IJ" horiz-adv-x="1601" 
d="M129 1479h309v-1479h-309v1479zM1178 1479h309v-1149q0 -164 -121 -257t-336 -93q-217 0 -319.5 95t-102.5 296v121h316v-117q0 -178 118 -178q73 0 104.5 43.5t31.5 146.5v1092z" />
    <glyph glyph-name="ij" unicode="ij" horiz-adv-x="1091" 
d="M139 1479h289v-234h-289v234zM139 1034h289v-1034h-289v1034zM662 1479h288v-234h-288v234zM662 1034h288v-1128q0 -153 -63.5 -225t-204.5 -72q-34 0 -96 4v182q42 5 59 23.5t17 62.5v1153z" />
    <glyph glyph-name="napostrophe" unicode="&#x22;n" 
d="M86 1479h252l-180 -293h-135zM909 799v-799h-288v709q0 28 -1 44.5t-6 42.5t-15.5 40.5t-31 26t-49.5 11.5q-57 0 -86 -42t-29 -109v-723h-288v1034h284l4 -104q82 125 240 125q125 0 195.5 -66t70.5 -190z" />
    <glyph glyph-name="f_f" unicode="ff" horiz-adv-x="1060" 
d="M559 1485l-4 -185q-21 3 -25 3q-25 0 -44 -6.5t-31.5 -15.5t-21 -26t-12.5 -29t-6.5 -34.5t-2.5 -33.5v-34v-90h215v174q0 87 20.5 143t66 86t103 41t144.5 11q43 0 96 -4l-4 -185q-21 3 -25 3q-34 0 -58 -12.5t-35.5 -28t-17.5 -44.5t-7 -46t-1 -48v-90h135v-176h-135
v-858h-282v858h-215v-858h-283v858h-129v176h129v174q0 87 20.5 143t66 86t103 41t144.5 11q43 0 96 -4z" />
    <glyph glyph-name="fi" unicode="fi" 
d="M559 1485l-4 -185q-21 3 -25 3q-25 0 -44 -6.5t-31.5 -15.5t-21 -26t-12.5 -29t-6.5 -34.5t-2.5 -33.5v-34v-90h141v-176h-141v-858h-283v858h-129v176h129v174q0 87 20.5 143t66 86t103 41t144.5 11q10 0 22 -0.5t32.5 -1.5t41.5 -2zM621 1479h288v-234h-288v234z
M621 1034h288v-1034h-288v1034z" />
    <glyph glyph-name="fl" unicode="fl" 
d="M559 1485l-4 -185q-21 3 -25 3q-25 0 -44 -6.5t-31.5 -15.5t-21 -26t-12.5 -29t-6.5 -34.5t-2.5 -33.5v-34v-90h141v-176h-141v-858h-283v858h-129v176h129v174q0 87 20.5 143t66 86t103 41t144.5 11q10 0 22 -0.5t32.5 -1.5t41.5 -2zM621 1479h288v-1479h-288v1479z" />
    <glyph glyph-name="f_f_i" unicode="ffi" horiz-adv-x="1511" 
d="M559 1485l-4 -185q-21 3 -25 3q-25 0 -44 -6.5t-31.5 -15.5t-21 -26t-12.5 -29t-6.5 -34.5t-2.5 -33.5v-34v-90h215v174q0 87 20.5 143t66 86t103 41t144.5 11q43 0 96 -4l-4 -185q-21 3 -25 3q-34 0 -58 -12.5t-35.5 -28t-17.5 -44.5t-7 -46t-1 -48v-90h135v-176h-135
v-858h-282v858h-215v-858h-283v858h-129v176h129v174q0 87 20.5 143t66 86t103 41t144.5 11q43 0 96 -4zM1108 1479h289v-234h-289v234zM1108 1034h289v-1034h-289v1034z" />
    <glyph glyph-name="f_f_l" unicode="ffl" horiz-adv-x="1515" 
d="M559 1485l-4 -185q-21 3 -25 3q-25 0 -44 -6.5t-31.5 -15.5t-21 -26t-12.5 -29t-6.5 -34.5t-2.5 -33.5v-34v-90h215v174q0 87 20.5 143t66 86t103 41t144.5 11q43 0 96 -4l-4 -185q-21 3 -25 3q-34 0 -58 -12.5t-35.5 -28t-17.5 -44.5t-7 -46t-1 -48v-90h135v-176h-135
v-858h-282v858h-215v-858h-283v858h-129v176h129v174q0 87 20.5 143t66 86t103 41t144.5 11q43 0 96 -4zM1112 1479h289v-1479h-289v1479z" />
    <glyph glyph-name=".notdef" horiz-adv-x="1048" 
d="M0 1470h1049v-1470h-1049v1470zM102 102h844v1264h-844v-1264zM784 979q0 -46 -10.5 -83t-32 -67t-41 -50.5t-52 -50.5t-50.5 -50q-22 -25 -31.5 -53t-9.5 -82v-66h-100v80q0 59 23 109.5t55.5 85.5t65.5 68t56 71.5t23 79.5q0 73 -46 123.5t-110 50.5q-67 0 -112 -47.5
t-56 -147.5l-102 17q13 142 87 211t189 69q112 0 183 -73.5t71 -194.5zM444 240v137h125v-137h-125z" />
    <glyph glyph-name=".null" horiz-adv-x="0" 
 />
    <glyph glyph-name=".null" horiz-adv-x="0" 
 />
    <glyph glyph-name="nonmarkingreturn" horiz-adv-x="682" 
 />
    <glyph glyph-name="CR" unicode="&#xd;" horiz-adv-x="454" 
 />
    <glyph glyph-name="space" unicode=" " horiz-adv-x="454" 
 />
    <glyph glyph-name="exclam" unicode="!" horiz-adv-x="681" 
d="M193 1479h286l-43 -1084h-198zM217 242h240v-242h-240v242z" />
    <glyph glyph-name="quotedbl" unicode="&#x22;" horiz-adv-x="681" 
d="M41 1450h229l-41 -592h-147zM410 1450h229l-41 -592h-147z" />
    <glyph glyph-name="numbersign" unicode="#" horiz-adv-x="909" 
d="M303 1450h219l-76 -395h136l75 395h220l-74 -395h112v-187h-147l-53 -290h112v-187h-147l-74 -391h-219l74 391h-135l-74 -391h-219l71 391h-112v187h149l52 290h-113v187h149zM414 868l-56 -290h136l55 290h-135z" />
    <glyph glyph-name="dollar" unicode="$" horiz-adv-x="909" 
d="M416 1446v160h86v-158q366 -9 366 -346v-58h-270v31q0 149 -96 170v-356l172 -113q79 -52 121.5 -94t67 -104t24.5 -150q0 -183 -93.5 -282.5t-291.5 -116.5v-179h-86v177q-106 2 -184 31.5t-122 80t-64.5 112.5t-20.5 138v90h282v-41q0 -89 25.5 -137.5t83.5 -60.5v370
l-119 74q-48 30 -78.5 52t-67.5 58t-58 72.5t-35.5 89.5t-14.5 115q0 166 96 262t277 113zM416 946v297q-44 -13 -67 -51.5t-23 -93.5q0 -93 90 -152zM502 555v-315q108 22 108 145q0 57 -23.5 94.5t-84.5 75.5z" />
    <glyph glyph-name="percent" unicode="%" horiz-adv-x="1593" 
d="M1018 1452h151l-589 -1479h-152zM659 1053q0 -192 -74 -276.5t-225 -84.5q-70 0 -121.5 19t-83.5 51.5t-51.5 84t-26.5 108t-7 130.5q0 179 70 271t222 92q87 0 146 -27t91.5 -81t46 -122.5t13.5 -164.5zM362 844q21 0 37 6.5t26.5 16t18 28.5t11.5 34t5.5 42.5t2 45
t0.5 50.5q0 58 -3 94.5t-12.5 70t-29.5 49t-51 15.5q-62 0 -82.5 -56.5t-20.5 -172.5q0 -44 1 -70t6.5 -59t15.5 -51t29 -30.5t46 -12.5zM1534 340q0 -191 -74 -275.5t-225 -84.5q-87 0 -145.5 27.5t-89.5 82.5t-43.5 122t-12.5 161q0 179 70 270.5t223 91.5q87 0 146 -27
t91.5 -81t46 -122.5t13.5 -164.5zM1237 131q24 0 42 7.5t28.5 25t17 33.5t9 47.5t3 51t0.5 58.5q0 58 -3 95t-12.5 70.5t-29.5 49t-51 15.5q-62 0 -82 -57t-20 -173q0 -44 1 -70t6.5 -59t15.5 -51t29 -30.5t46 -12.5z" />
    <glyph glyph-name="ampersand" unicode="&#x26;" horiz-adv-x="1366" 
d="M965 1192q0 -93 -54 -180t-184 -193l231 -303q35 119 35 260q0 17 -2 35h250v-37q0 -165 -23 -270.5t-77 -198.5l223 -305h-303l-90 119q-86 -79 -180.5 -112.5t-231.5 -33.5q-247 0 -383.5 115t-136.5 328q0 131 64 228.5t219 203.5q-150 180 -150 326q0 154 109 242.5
t286 88.5q189 0 293.5 -83t104.5 -230zM549 991q78 51 112.5 99t34.5 108q0 57 -35.5 91t-95.5 34q-54 0 -89.5 -36.5t-35.5 -90.5q0 -85 109 -205zM791 297l-302 369q-147 -116 -147 -248q0 -104 61 -168t160 -64q63 0 116.5 24t111.5 87z" />
    <glyph glyph-name="quotesingle" unicode="'" horiz-adv-x="512" 
d="M141 1450h230l-41 -469h-148z" />
    <glyph glyph-name="parenleft" unicode="(" horiz-adv-x="569" 
d="M285 1546h161q-60 -186 -97.5 -441t-37.5 -456q0 -151 26.5 -341t108.5 -554h-161q-213 574 -213 912q0 357 213 880z" />
    <glyph glyph-name="parenright" unicode=")" horiz-adv-x="569" 
d="M121 1546h162q213 -523 213 -880q0 -338 -213 -912h-162q81 357 108 553t27 342q0 201 -37.5 456t-97.5 441z" />
    <glyph glyph-name="asterisk" unicode="*" horiz-adv-x="909" 
d="M174 1397l170 94l105 -254l96 254l176 -96l-170 -219l283 38v-204l-289 41l178 -238l-176 -102l-101 280l-116 -280l-174 106l180 240l-279 -45v198l281 -34z" />
    <glyph glyph-name="plus" unicode="+" 
d="M399 1010h224v-379h350v-223h-350v-379h-224v379h-350v223h350v379z" />
    <glyph glyph-name="comma" unicode="," horiz-adv-x="454" 
d="M141 270h269l-152 -471h-197z" />
    <glyph glyph-name="hyphen" unicode="-" horiz-adv-x="681" 
d="M88 657h502v-208h-502v208z" />
    <glyph glyph-name="period" unicode="." horiz-adv-x="454" 
d="M106 270h240v-270h-240v270z" />
    <glyph glyph-name="slash" unicode="/" horiz-adv-x="569" 
d="M401 1518h211l-446 -1545h-209z" />
    <glyph glyph-name="zero" unicode="0" horiz-adv-x="909" 
d="M461 1450q68 0 123.5 -14.5t96 -35t72 -60.5t52.5 -74.5t35 -95t21 -102.5t11 -117t4.5 -119.5t0.5 -126.5q0 -79 -0.5 -121t-4.5 -115t-11 -114t-21.5 -100.5t-35.5 -93.5t-53.5 -74t-74 -60.5t-98 -35t-125.5 -14.5q-66 0 -120 14t-94 34.5t-71 59.5t-51 73.5
t-34.5 92.5t-21.5 101t-11 114.5t-4.5 116.5t-0.5 124q0 78 0.5 118t4 114t10.5 115.5t21.5 103.5t35 97.5t52 77.5t72 64t96.5 37.5t124 15.5zM334 971v-545q0 -127 30.5 -184.5t96.5 -57.5q63 0 94 59.5t31 213.5v514q0 45 -1.5 77.5t-9 73t-20 65.5t-36.5 42.5t-58 17.5
q-62 0 -94.5 -65t-32.5 -211z" />
    <glyph glyph-name="one" unicode="1" horiz-adv-x="909" 
d="M373 1432h274v-1432h-305v1100q-54 -47 -130.5 -97.5t-111.5 -60.5v266q182 92 273 224z" />
    <glyph glyph-name="two" unicode="2" horiz-adv-x="909" 
d="M858 1083q0 -103 -43 -217q-41 -110 -189 -303t-309 -354h555v-209h-847v252l356 461q186 241 186 391q0 135 -108 135q-123 0 -123 -178v-27h-289q-2 23 -2 51q0 78 22.5 142.5t69 115t126 79t186.5 28.5q198 0 303.5 -94.5t105.5 -272.5z" />
    <glyph glyph-name="three" unicode="3" horiz-adv-x="909" 
d="M846 1071q0 -283 -199 -323q115 -28 167 -106.5t52 -235.5q0 -221 -110 -327t-332 -106q-208 0 -303.5 92t-95.5 279v43h290v-33q0 -87 28 -128.5t97 -41.5q30 0 52.5 9.5t35.5 29.5t21 38.5t11.5 50.5t4 50t0.5 50q0 128 -42 174.5t-173 46.5h-41v225h80q90 0 127 42
t37 157q0 104 -26.5 149t-88.5 45q-54 0 -80.5 -42.5t-27.5 -135.5h-287q-2 33 -2 51q0 162 96.5 243t302.5 81q214 0 310 -91.5t96 -285.5z" />
    <glyph glyph-name="four" unicode="4" horiz-adv-x="909" 
d="M391 1432h379v-891h113v-209h-113v-332h-274v332h-451v284zM266 539h246q0 2 7 317t11 369q-91 -278 -264 -686z" />
    <glyph glyph-name="five" unicode="5" horiz-adv-x="909" 
d="M86 1432h727v-215h-455l-14 -369q45 52 93 74t118 22q59 0 106 -15t78.5 -39.5t55 -63t36 -77t20 -91t9.5 -95.5t2 -100q0 -243 -99 -361t-335 -118q-379 0 -379 331v21h289v-17q0 -66 28.5 -101.5t82.5 -35.5q72 0 99 63.5t27 227.5q0 154 -26 216.5t-92 62.5
q-51 0 -79.5 -36.5t-35.5 -115.5h-276z" />
    <glyph glyph-name="six" unicode="6" horiz-adv-x="909" 
d="M477 1448q369 0 369 -328h-293q0 67 -23.5 99t-76.5 32q-26 0 -46.5 -8.5t-34 -20.5t-22.5 -37.5t-14.5 -48.5t-8 -64.5t-3 -73.5t-0.5 -87v-86q53 51 102 74t119 23q165 0 244 -111.5t79 -339.5q0 -250 -106 -367.5t-324 -117.5q-84 0 -148.5 20t-107.5 60t-71.5 90.5
t-43.5 121.5t-20.5 141.5t-5.5 162.5v254q0 111 10 196t38 166.5t75.5 133.5t126.5 84t186 32zM328 444q0 -50 1.5 -82.5t8.5 -69.5t19.5 -58.5t35.5 -35.5t56 -14q27 0 47 9t33.5 21t22.5 37t13.5 43t6.5 54.5t2.5 56t0.5 60.5q0 53 -2 87t-8.5 71t-19.5 57t-36 33.5
t-56 13.5q-30 0 -51.5 -9t-35 -29.5t-21.5 -41.5t-11.5 -58.5t-4.5 -66.5t-1 -78z" />
    <glyph glyph-name="seven" unicode="7" horiz-adv-x="909" 
d="M63 1432h768v-228l-348 -1204h-321l391 1214h-490v218z" />
    <glyph glyph-name="eight" unicode="8" horiz-adv-x="909" 
d="M459 1450q197 0 299 -96t102 -283q0 -132 -50 -208.5t-155 -112.5q213 -63 213 -355q0 -210 -105 -307.5t-327 -97.5q-213 0 -305 98t-92 320q0 148 52.5 229t160.5 119q-108 29 -155.5 104t-47.5 211q0 192 100.5 285.5t309.5 93.5zM342 1047q0 -95 27 -141t86 -46
q58 0 86 42.5t28 135.5q0 207 -112 207q-62 0 -88.5 -48t-26.5 -150zM328 428q0 -126 28.5 -178.5t96.5 -52.5q66 0 95.5 54.5t29.5 172.5q0 219 -123 219q-127 0 -127 -215z" />
    <glyph glyph-name="nine" unicode="9" horiz-adv-x="909" 
d="M459 1448q198 0 290 -109t105 -313q14 -221 14 -358q0 -91 -3 -157t-13.5 -142.5t-29.5 -129.5t-52 -105.5t-79 -83.5t-113 -50.5t-152 -19.5q-187 0 -276 81.5t-89 249.5v25h287q-2 -12 -2 -23q0 -16 3 -33.5t13 -42t34.5 -40t60.5 -15.5q23 0 41.5 7.5t31.5 24.5
t23 33.5t16 45.5t10 48.5t5.5 54.5t2 51.5t1 52t0.5 43.5q0 51 -6 104q-94 -94 -234 -94q-151 0 -230 108t-79 306q0 481 420 481zM332 999q0 -134 27.5 -191.5t95.5 -57.5q65 0 95 61t30 188q0 131 -28 189.5t-95 58.5q-70 0 -97.5 -57.5t-27.5 -190.5z" />
    <glyph glyph-name="colon" unicode=":" horiz-adv-x="454" 
d="M106 1034h246v-270h-246v270zM106 270h246v-270h-246v270z" />
    <glyph glyph-name="semicolon" unicode=";" horiz-adv-x="454" 
d="M104 1034h244v-266h-244v266zM109 270h268l-156 -471h-196z" />
    <glyph glyph-name="less" unicode="&#x3c;" 
d="M971 1004v-244l-621 -223l621 -224v-247l-920 358v225z" />
    <glyph glyph-name="equal" unicode="=" 
d="M51 823h920v-223h-920v223zM51 436h920v-223h-920v223z" />
    <glyph glyph-name="greater" unicode="&#x3e;" 
d="M51 760v244l920 -355v-225l-920 -358v247l621 224z" />
    <glyph glyph-name="question" unicode="?" horiz-adv-x="909" 
d="M467 1505q172 0 267 -92.5t95 -259.5q0 -182 -129 -338l-79 -98q-49 -59 -61.5 -103.5t-12.5 -126.5v-92h-211v160q0 69 9.5 117t39.5 98l107 178q34 57 48.5 97.5t14.5 97.5q0 162 -113 162q-60 0 -88 -49.5t-28 -155.5v-17h-246v35q0 199 95 293t292 94zM328 242h239
v-242h-239v242z" />
    <glyph glyph-name="at" unicode="@" horiz-adv-x="1820" 
d="M1765 801q0 -162 -67 -307.5t-182.5 -234.5t-247.5 -89q-101 0 -156.5 36.5t-69.5 139.5q-47 -91 -120 -132.5t-179 -41.5q-114 0 -177.5 60t-63.5 155q0 77 28 201q41 185 60 241q54 157 158 209q64 33 155 33q131 0 184 -98l21 84h260l-119 -518q-20 -85 -20 -111
q0 -41 18.5 -63.5t75.5 -22.5q60 0 115.5 49t91.5 122t57 153.5t21 146.5q0 169 -88 297.5t-235 195t-329 66.5q-223 0 -392.5 -100t-260 -275.5t-90.5 -400.5q0 -212 87.5 -376t250.5 -255.5t377 -91.5q172 0 323.5 53t317.5 174l82 -108q-187 -138 -360.5 -199t-370.5 -61
q-255 0 -452 109t-305 307.5t-108 455.5q0 195 67.5 365t186 290.5t286 189.5t361.5 69q164 0 310.5 -49.5t257.5 -140t176 -227t65 -300.5zM836 317q40 0 69.5 25.5t55.5 83.5q21 46 56.5 191.5t35.5 201.5q0 21 -2 35.5t-9.5 33t-25 28.5t-45.5 10q-58 0 -96 -52.5
t-66 -168.5q-51 -209 -51 -285q0 -103 78 -103z" />
    <glyph glyph-name="A" unicode="A" horiz-adv-x="1251" 
d="M426 1479h408l401 -1479h-326l-82 328h-421l-84 -328h-306zM610 1194l-145 -643h299z" />
    <glyph glyph-name="B" unicode="B" horiz-adv-x="1251" 
d="M133 1479h520q242 0 350.5 -90t108.5 -283q0 -285 -252 -338q142 -20 209.5 -108.5t67.5 -258.5q0 -209 -109.5 -305t-343.5 -96h-551v1479zM440 874h164q115 0 166 54q25 27 33 57.5t8 87.5q0 48 -14 82t-34 52.5t-54.5 28.5t-63.5 12.5t-72 2.5h-133v-377zM440 647
v-420h125q70 0 113.5 7.5t80 29t52.5 65t16 111.5q0 113 -52 160t-181 47h-154z" />
    <glyph glyph-name="C" unicode="C" horiz-adv-x="1138" 
d="M1051 1057v-45h-303v28q0 236 -148 236q-36 0 -63.5 -14t-46.5 -36.5t-32 -63.5t-20.5 -81.5t-11.5 -105t-5 -119.5t-1 -139v-80t1 -75.5t3.5 -74t7 -65t11.5 -61.5t16.5 -51t23 -44.5t30.5 -30.5t39.5 -21.5t49.5 -6.5q160 0 160 274v17h305v-43q0 -233 -112 -352
t-349 -119q-77 0 -140 12.5t-111 33.5t-85 56.5t-62.5 72.5t-43.5 92t-28.5 103.5t-16 118.5t-7 127t-1.5 137q0 84 1 137t6 127t15 120.5t27.5 105t43.5 94.5t64.5 74t88 58.5t116.5 34t148 13.5q215 0 322.5 -109t107.5 -335z" />
    <glyph glyph-name="D" unicode="D" horiz-adv-x="1251" 
d="M135 1479h475q104 0 184 -20t135 -51t93.5 -87.5t60 -112t33 -142t14.5 -159.5t3 -182q0 -81 -2.5 -142.5t-9.5 -128.5t-19 -116t-32.5 -98.5t-49.5 -84.5t-69.5 -66t-92.5 -49.5t-119 -29t-149 -10.5h-455v1479zM451 1251v-1020h75q116 0 170 25q71 35 99 138.5
t28 322.5q0 327 -49 436q-26 57 -81 77.5t-156 20.5h-86z" />
    <glyph glyph-name="E" unicode="E" 
d="M129 1479h807v-228h-498v-364h459v-228h-459v-428h514v-231h-823v1479z" />
    <glyph glyph-name="F" unicode="F" horiz-adv-x="909" 
d="M123 1479h768v-228h-457v-379h436v-227h-436v-645h-311v1479z" />
    <glyph glyph-name="G" unicode="G" horiz-adv-x="1251" 
d="M1114 1071v-37h-307v72q0 86 -47.5 138t-128.5 52q-49 0 -84.5 -16.5t-57.5 -57.5t-35 -79.5t-18.5 -112.5t-6.5 -124.5t-1 -147.5v-100.5t1.5 -89.5t4.5 -84t8.5 -70.5t14 -64.5t20.5 -50.5t28.5 -43.5t38 -28.5t49 -20t60.5 -5.5q77 0 156 28v326h-170v229h475v-749
q-278 -53 -428 -53q-416 0 -512 256q-35 93 -47 219.5t-12 310.5q0 72 2 126t8 120.5t17 116.5t30.5 104.5t46.5 94t66.5 76.5t89 60t116 36.5t146.5 13.5q230 0 353.5 -115.5t123.5 -329.5z" />
    <glyph glyph-name="H" unicode="H" horiz-adv-x="1251" 
d="M139 1479h312v-586h350v586h311v-1479h-311v651h-350v-651h-312v1479z" />
    <glyph glyph-name="I" unicode="I" horiz-adv-x="569" 
d="M129 1479h309v-1479h-309v1479z" />
    <glyph glyph-name="J" unicode="J" 
d="M600 1479h309v-1149q0 -164 -120.5 -257t-335.5 -93q-217 0 -319.5 95t-102.5 296v121h315v-117q0 -178 119 -178q73 0 104 43.5t31 146.5v1092z" />
    <glyph glyph-name="K" unicode="K" horiz-adv-x="1138" 
d="M111 1479h311v-623l364 623h340l-413 -664l413 -815h-348l-356 748v-748h-311v1479z" />
    <glyph glyph-name="L" unicode="L" horiz-adv-x="909" 
d="M129 1479h313v-1233h459v-246h-772v1479z" />
    <glyph glyph-name="M" unicode="M" horiz-adv-x="1705" 
d="M123 1479h489l234 -1006l248 1006h481v-1479h-301v1141l-289 -1141h-295l-274 1141v-1141h-293v1479z" />
    <glyph glyph-name="N" unicode="N" horiz-adv-x="1366" 
d="M133 1479h416l395 -1024v1024h287v-1479h-406l-405 1081v-1081h-287v1479z" />
    <glyph glyph-name="O" unicode="O" horiz-adv-x="1251" 
d="M1139 750q0 -89 -1 -144.5t-6.5 -131.5t-15 -123.5t-28 -106.5t-45 -94.5t-65.5 -73t-90 -57.5t-119 -33t-151 -13q-78 0 -142 13t-112.5 35t-86.5 59t-64 76t-45 96t-29.5 108.5t-16.5 123.5t-7.5 132t-1.5 142q0 79 2.5 140.5t9 129.5t18 119.5t31.5 104.5t47 91.5
t65 73t86.5 55.5t111.5 33.5t139 12.5q104 0 184 -20t134.5 -51t92 -89t58 -112.5t31.5 -145t13.5 -162.5t2.5 -188zM428 840v-125q0 -81 1.5 -138t6.5 -115.5t13.5 -97t23 -74t35 -55t49.5 -31t66 -11.5q29 0 53 4.5t43 17.5t33.5 26.5t25.5 40t18.5 49t12.5 64t8 74t4 89
t1.5 99.5t0.5 115v141q0 148 -21 232t-63 117.5t-114 33.5q-116 0 -156.5 -100.5t-40.5 -355.5z" />
    <glyph glyph-name="P" unicode="P" horiz-adv-x="1138" 
d="M131 1479h520q226 0 328 -106t102 -339q0 -227 -106 -329.5t-322 -102.5h-211v-602h-311v1479zM442 829h125q201 0 201 211q0 67 -15.5 110.5t-48 64.5t-69.5 28.5t-92 7.5h-101v-422z" />
    <glyph glyph-name="Q" unicode="Q" horiz-adv-x="1251" 
d="M1118 782q0 -98 -2 -157.5t-11 -134.5t-26 -125t-49 -100.5t-78 -88.5q90 27 129 32t156 5v-213h-406q-105 -10 -192 -10q-77 0 -140.5 8.5t-113 29.5t-88.5 43t-67 62.5t-48 74t-33 92.5t-20.5 101.5t-10.5 117.5t-4 125t-1 138q0 100 2.5 166t13.5 151t31 139.5
t57.5 113t90.5 91t132 54t181 21.5q100 0 178 -22t130 -54.5t88.5 -92t56 -113t29.5 -139.5t12.5 -150t2.5 -165zM420 799v-119q0 -248 39.5 -357.5t150.5 -109.5q115 0 159 122q35 100 38 361v140q0 76 -1 115.5t-6 104t-17.5 98.5t-32.5 71.5t-54.5 54t-81.5 16.5
q-29 0 -53 -7t-42 -23t-32.5 -33t-24.5 -46t-17.5 -52t-12 -61.5t-7 -64t-4 -69.5t-1.5 -68v-70v-3z" />
    <glyph glyph-name="R" unicode="R" horiz-adv-x="1138" 
d="M123 1479h514q202 0 300.5 -96t98.5 -296q0 -158 -65.5 -246t-202.5 -114q69 -10 113.5 -27t78.5 -50t51 -85t21 -129l15 -254q7 -136 22 -182h-303q-19 43 -26 75t-7 87v227q0 131 -52 177t-187 46h-60v-612h-311v1479zM434 1251v-411h72q58 0 95.5 8t68 30t44 64.5
t13.5 108.5q0 65 -12.5 104.5t-43 60.5t-69 28t-102.5 7h-66z" />
    <glyph glyph-name="S" unicode="S" horiz-adv-x="1138" 
d="M1030 1110v-51h-303v35q0 192 -149 192q-67 0 -108.5 -45t-41.5 -119q0 -99 94 -157l299 -191q132 -84 180 -166.5t48 -208.5q0 -214 -125.5 -320t-382.5 -106q-105 0 -185.5 22.5t-129.5 59.5t-80 89t-42.5 105.5t-11.5 115.5v92h314v-39q0 -114 38 -167.5t129 -53.5
q78 0 121 42.5t43 120.5q0 18 -3 34t-5.5 29t-11 26.5t-13 21.5t-17.5 20t-18 17t-22.5 16.5t-22 14.5t-25 15.5t-24.5 14.5l-184 113q-77 47 -124.5 86t-84.5 89t-53 111t-16 142q0 100 35.5 176t101.5 123t154.5 70.5t197.5 23.5q85 0 153 -15.5t112 -38.5t76 -59
t48.5 -68t25.5 -75.5t11 -71.5t2 -65z" />
    <glyph glyph-name="T" unicode="T" 
d="M12 1479h998v-240h-344v-1239h-314v1239h-340v240z" />
    <glyph glyph-name="U" unicode="U" horiz-adv-x="1251" 
d="M123 1479h309v-996q0 -148 46 -219t143 -71q204 0 204 288v998h301v-992q0 -263 -124 -388.5t-386 -125.5q-252 0 -372.5 127.5t-120.5 388.5v990z" />
    <glyph glyph-name="V" unicode="V" horiz-adv-x="1138" 
d="M10 1479h322l231 -1076l260 1076h305l-391 -1479h-362z" />
    <glyph glyph-name="W" unicode="W" horiz-adv-x="1820" 
d="M-2 1479h317l195 -1039l235 1039h365l223 -1039l187 1039h303l-328 -1479h-342l-233 1081l-258 -1081h-336z" />
    <glyph glyph-name="X" unicode="X" horiz-adv-x="1138" 
d="M33 1479h352l209 -486l209 486h321l-368 -731l374 -748h-350l-227 510l-227 -510h-320l383 774z" />
    <glyph glyph-name="Y" unicode="Y" horiz-adv-x="1138" 
d="M14 1479h338l221 -625l236 625h315l-411 -936v-543h-314v543z" />
    <glyph glyph-name="Z" unicode="Z" 
d="M72 1479h891v-269l-592 -979h606v-231h-934v270l600 981h-571v228z" />
    <glyph glyph-name="bracketleft" unicode="[" horiz-adv-x="569" 
d="M90 1546h434v-172h-211v-1446h211v-176h-434v1794z" />
    <glyph glyph-name="backslash" unicode="\" horiz-adv-x="512" 
d="M-74 1518h211l445 -1545h-209z" />
    <glyph glyph-name="bracketright" unicode="]" horiz-adv-x="569" 
d="M27 1546h434v-1794h-434v176h211v1446h-211v172z" />
    <glyph glyph-name="asciicircum" unicode="^" 
d="M412 1450h202l363 -877h-236l-233 582l-223 -582h-236z" />
    <glyph glyph-name="underscore" unicode="_" 
d="M0 -154h1024v-102h-1024v102z" />
    <glyph glyph-name="grave" unicode="`" horiz-adv-x="569" 
d="M-25 1481h279l184 -295h-168z" />
    <glyph glyph-name="a" unicode="a" 
d="M897 725v-498q0 -112 16 -227h-268l-14 137q-92 -155 -266 -155q-134 0 -206.5 84t-72.5 237q0 129 45 203q46 76 138 110.5t272 34.5h75v117q0 66 -26 97.5t-90 31.5q-61 0 -89 -37.5t-28 -124.5h-272v15q0 161 100.5 233t298.5 72q204 0 295.5 -80t91.5 -250zM475 156
q75 0 112.5 63t37.5 199v82h-23q-158 0 -205 -54q-28 -32 -28 -120q0 -36 3 -60.5t12.5 -52.5t32 -42.5t58.5 -14.5z" />
    <glyph glyph-name="b" unicode="b" 
d="M113 1479h288v-543q80 117 232 117q82 0 138 -29t86 -70.5t45.5 -123t18.5 -148.5t3 -186q0 -54 -1 -90.5t-5 -88.5t-12.5 -88t-22.5 -78t-36.5 -69.5t-52.5 -52t-73 -36t-96 -11.5q-159 0 -236 133l-4 -115h-272v1479zM514 154q34 0 57.5 18.5t37 48.5t21 81.5t9.5 102
t2 125.5v74q0 152 -28 213.5t-95 61.5q-36 0 -60 -16.5t-37.5 -42t-20.5 -73.5t-9 -92t-2 -116q0 -66 1.5 -111.5t6 -93t13 -77.5t22 -55t34 -36.5t48.5 -11.5z" />
    <glyph glyph-name="c" unicode="c" 
d="M920 696v-30h-277q-1 43 -2.5 67.5t-8 54t-19 44.5t-35 25.5t-54.5 10.5q-81 0 -110 -63t-29 -211v-148q0 -153 26.5 -215.5t104.5 -62.5q68 0 99.5 47.5t31.5 144.5v21h279v-25q0 -370 -422 -370q-219 0 -322 127q-86 106 -86 305v84q0 254 43 356q28 67 90.5 112
t134 63t152.5 18q404 0 404 -355z" />
    <glyph glyph-name="d" unicode="d" 
d="M618 1479h289v-1479h-272l-2 115q-78 -133 -238 -133q-85 0 -144.5 32.5t-92.5 96t-47.5 146t-14.5 194.5v149q0 226 65.5 339.5t227.5 113.5q146 0 229 -117v543zM631 481v80q0 61 -2 101.5t-9.5 85.5t-21 71t-37.5 43t-59 17q-71 0 -97 -71t-26 -220v-127
q0 -168 30.5 -237.5t96.5 -69.5q68 0 96.5 74t28.5 253z" />
    <glyph glyph-name="e" unicode="e" 
d="M932 471h-547v-102q0 -109 31 -158t98 -49q119 0 119 166v20h293q-9 -187 -114 -277.5t-310 -90.5q-148 0 -238 47q-56 29 -92 77.5t-52.5 118.5t-22 135.5t-5.5 161.5q0 76 3.5 131.5t14 115t29 100.5t50.5 79.5t77 61t108.5 36t145.5 13.5q190 0 289 -86
q125 -108 125 -389v-54zM385 631h250v67q0 176 -123 176q-71 0 -99 -53.5t-28 -158.5v-31z" />
    <glyph glyph-name="f" unicode="f" horiz-adv-x="569" 
d="M559 1485l-4 -185q-21 3 -25 3q-25 0 -44 -6.5t-31.5 -15.5t-21 -26t-12.5 -29t-6.5 -34.5t-2.5 -33.5v-34v-90h141v-176h-141v-858h-283v858h-129v176h129v174q0 87 20.5 143t66 86t103 41t144.5 11q10 0 22 -0.5t32.5 -1.5t41.5 -2z" />
    <glyph glyph-name="g" unicode="g" 
d="M631 913v121h274v-1022q0 -221 -95.5 -315t-317.5 -94q-380 0 -386 305h285v-10q0 -65 28 -100.5t83 -35.5q63 0 89.5 40t26.5 135v198q-79 -121 -235 -121q-73 0 -125.5 23t-84.5 61t-51 99t-25.5 126.5t-6.5 153.5v94q0 94 7 163t27 132t53.5 102t88.5 62t131 23
q167 0 234 -140zM631 510q0 212 -28.5 290.5t-100.5 78.5q-74 0 -100.5 -72.5t-26.5 -241.5v-86q0 -155 24.5 -224t96.5 -69q42 0 69.5 22t41.5 68t19 100t5 134z" />
    <glyph glyph-name="h" unicode="h" 
d="M115 1479h288v-549q82 125 240 125q266 0 266 -273v-782h-288v727q0 80 -25 113.5t-78 33.5q-56 0 -85.5 -41t-29.5 -110v-723h-288v1479z" />
    <glyph glyph-name="i" unicode="i" horiz-adv-x="569" 
d="M139 1479h289v-234h-289v234zM139 1034h289v-1034h-289v1034z" />
    <glyph glyph-name="j" unicode="j" horiz-adv-x="569" 
d="M139 1479h289v-234h-289v234zM139 1034h289v-1128q0 -153 -63.5 -225t-204.5 -72q-35 0 -97 4v182q42 5 59 23.5t17 62.5v1153z" />
    <glyph glyph-name="k" unicode="k" 
d="M111 1479h290v-871l263 426h301l-293 -461l325 -573h-325l-271 553v-553h-290v1479z" />
    <glyph glyph-name="l" unicode="l" horiz-adv-x="569" 
d="M139 1479h289v-1479h-289v1479z" />
    <glyph glyph-name="m" unicode="m" horiz-adv-x="1478" 
d="M856 924q57 71 117 100t141 29q129 0 195.5 -72.5t66.5 -204.5v-776h-286v721q0 71 -19.5 109t-75.5 38q-58 0 -85 -47t-27 -143v-678h-285v725q0 74 -23 108.5t-71 34.5q-57 0 -87 -50.5t-30 -145.5v-672h-287v1034h273l4 -114q87 133 248 133q74 0 136.5 -34.5
t94.5 -94.5z" />
    <glyph glyph-name="n" unicode="n" 
d="M909 799v-799h-288v709q0 28 -1 44.5t-6 42.5t-15.5 40.5t-31 26t-49.5 11.5q-57 0 -86 -42t-29 -109v-723h-288v1034h284l4 -104q82 125 240 125q125 0 195.5 -66t70.5 -190z" />
    <glyph glyph-name="o" unicode="o" 
d="M934 539q0 -116 -9 -196t-36 -155t-75.5 -119t-129 -70t-195.5 -26q-99 0 -171 26.5t-115.5 71.5t-69 116.5t-34.5 147.5t-9 179q0 73 3.5 129t14.5 115.5t29.5 102.5t50 82.5t74.5 64t104.5 39t139.5 14.5q106 0 182 -22t123.5 -61.5t75 -106t37.5 -144.5t10 -188z
M510 162q76 0 104.5 68.5t28.5 238.5v121q0 159 -24.5 224t-104.5 65q-36 0 -61.5 -15t-39.5 -38t-22 -62t-10 -75.5t-2 -90.5v-78q0 -148 11 -222t38.5 -105t81.5 -31z" />
    <glyph glyph-name="p" unicode="p" 
d="M928 530v-71q0 -50 -2 -90.5t-7 -86t-15 -81t-24.5 -71.5t-37 -61.5t-52 -46t-69.5 -30.5t-88 -10q-143 0 -227 114v-489h-289v1427h270l4 -114q41 69 97.5 101t138.5 32q76 0 131 -25t87.5 -66.5t51.5 -110.5t25 -143t6 -178zM393 512v-41q0 -50 1 -82.5t5 -73
t12.5 -65.5t22.5 -48.5t37 -34.5t53 -11q72 0 96.5 74.5t24.5 279.5q0 61 -1.5 102.5t-5.5 88t-13 75.5t-23 54.5t-35.5 37t-50.5 11.5q-32 0 -54.5 -16t-36 -43t-20.5 -76t-9.5 -101t-2.5 -131z" />
    <glyph glyph-name="q" unicode="q" 
d="M633 920l4 114h270v-1427h-289v489q-81 -114 -227 -114q-58 0 -103 14t-76 37t-52.5 65t-34 84.5t-19 111t-8.5 128.5t-2 151q0 65 4 117t14.5 110.5t31.5 101t53 78.5t82 54.5t114 18.5q85 0 140.5 -32t97.5 -101zM500 156q31 0 53.5 10.5t37 35.5t23 50t12 69.5
t4.5 78.5t1 92q0 51 -0.5 79.5t-2 71.5t-5 67.5t-9 55.5t-15 48.5t-22 34t-30.5 23.5t-41 7q-25 0 -45 -10t-33 -25.5t-22.5 -44t-14.5 -55.5t-8 -70.5t-3.5 -78.5t-0.5 -89q0 -92 4 -150t16.5 -107t37 -71t63.5 -22z" />
    <glyph glyph-name="r" unicode="r" horiz-adv-x="681" 
d="M662 1051v-254q-23 2 -48 2q-113 0 -162 -55t-49 -183v-561h-288v1034h274v-133q39 80 101 115t157 35h15z" />
    <glyph glyph-name="s" unicode="s" horiz-adv-x="909" 
d="M453 1055q177 0 280 -80q44 -35 65 -85.5t21 -133.5v-19h-274v19q0 72 -24.5 106.5t-78.5 34.5q-47 0 -73.5 -28t-26.5 -74q0 -36 17.5 -62.5t62.5 -48.5l186 -90q128 -62 185 -134t57 -167q0 -152 -106 -230.5t-312 -78.5q-185 0 -279 72.5t-94 226.5q0 22 2 49h281v-39
q0 -74 29 -107.5t86 -33.5q51 0 80.5 28.5t29.5 79.5q0 33 -9.5 57.5t-30 43t-36.5 28t-45 23.5l-174 84q-46 23 -77 42.5t-63 50.5t-48 72.5t-16 94.5q0 139 103.5 219t281.5 80z" />
    <glyph glyph-name="t" unicode="t" horiz-adv-x="569" 
d="M393 1321v-287h160v-184h-160v-549q0 -69 20 -97t74 -28q40 0 60 2v-180q-78 -8 -135 -8q-160 0 -228.5 67t-68.5 222v571h-119v184h121v168z" />
    <glyph glyph-name="u" unicode="u" 
d="M121 1034h287v-710q0 -82 23.5 -121t72.5 -39q53 0 81.5 44.5t28.5 119.5v706h289v-821q0 -69 4 -213h-280l-4 111q-44 -67 -103 -98t-143 -31q-125 0 -190.5 72t-65.5 198v782z" />
    <glyph glyph-name="v" unicode="v" horiz-adv-x="909" 
d="M16 1034h293l148 -776l153 776h283l-285 -1034h-317z" />
    <glyph glyph-name="w" unicode="w" horiz-adv-x="1593" 
d="M23 1034h286l144 -772l200 772h299l185 -772l157 772h277l-281 -1034h-303l-188 698l-211 -698h-307z" />
    <glyph glyph-name="x" unicode="x" 
d="M45 1034h324l151 -313l176 313h287l-276 -495l297 -539h-326l-180 362l-191 -362h-287l306 543z" />
    <glyph glyph-name="y" unicode="y" horiz-adv-x="909" 
d="M18 1034h287l150 -727l157 727h279l-399 -1427h-304l111 383z" />
    <glyph glyph-name="z" unicode="z" horiz-adv-x="796" 
d="M61 1034h682v-194l-403 -654h410v-186h-703v211l395 639h-381v184z" />
    <glyph glyph-name="braceleft" unicode="{" horiz-adv-x="561" 
d="M608 1544v-139q-50 -4 -82 -20.5t-65 -49.5q-35 -35 -50.5 -74.5t-15.5 -101.5v-149q0 -162 -68.5 -252.5t-228.5 -108.5q153 -17 225 -101.5t72 -250.5v-168q0 -63 17.5 -100t50.5 -70q31 -31 63 -46t82 -19v-140q-160 6 -266 66q-98 56 -136 129.5t-38 216.5v121
q0 65 -4.5 105t-16.5 75.5t-36.5 55.5t-62 34.5t-95.5 22.5v139q118 12 166.5 70.5t48.5 185.5v158q0 93 17 156t43.5 97t72.5 68q112 81 307 90z" />
    <glyph glyph-name="bar" unicode="|" horiz-adv-x="512" 
d="M113 1610h229v-2048h-229v2048z" />
    <glyph glyph-name="braceright" unicode="}" horiz-adv-x="561" 
d="M-47 1405v139q195 -9 307 -90q46 -34 72.5 -68t43.5 -97t17 -156v-158q0 -127 48.5 -185.5t166.5 -70.5v-139q-58 -8 -95.5 -22.5t-62 -34.5t-36.5 -55.5t-16.5 -75.5t-4.5 -105v-121q0 -143 -38 -216.5t-136 -129.5q-106 -60 -266 -66v140q50 4 82 19t63 46
q33 33 50.5 70t17.5 100v168q0 166 72 250.5t225 101.5q-160 18 -228.5 108.5t-68.5 252.5v149q0 62 -15.5 101.5t-50.5 74.5q-33 33 -65 49.5t-82 20.5z" />
    <glyph glyph-name="asciitilde" unicode="~" 
d="M309 713q43 0 106 -21t116 -46.5t111.5 -46.5t94.5 -21q44 0 69.5 30t37.5 103h145q-18 -182 -88 -267.5t-192 -85.5q-20 0 -43 4.5t-40.5 9.5t-47.5 17.5t-46 19.5t-54 25t-54 25q-87 41 -135 41q-89 0 -111 -140h-145q37 353 276 353z" />
    <glyph glyph-name="uni00A0" unicode="&#xa0;" horiz-adv-x="454" 
 />
    <glyph glyph-name="exclamdown" unicode="&#xa1;" horiz-adv-x="681" 
d="M217 1055h246v-246h-246v246zM242 659h196l45 -1083h-286z" />
    <glyph glyph-name="cent" unicode="&#xa2;" horiz-adv-x="909" 
d="M582 1042l77 168l91 -45l-72 -153q194 -78 194 -346h-288q0 72 -13 116l-223 -542q14 -40 38.5 -57t68.5 -17q66 0 99.5 58.5t33.5 162.5h289q0 -405 -422 -405q-123 0 -211 36l-80 -161l-90 49l84 166q-64 59 -94.5 161.5t-30.5 294.5q0 69 3.5 122.5t14.5 110.5
t30 98.5t50.5 80.5t75.5 63t106.5 38t141.5 14q64 0 127 -13zM322 563v-117l178 418q-18 6 -47 6q-69 0 -97 -49q-17 -30 -25.5 -84t-8.5 -174z" />
    <glyph glyph-name="sterling" unicode="&#xa3;" horiz-adv-x="909" 
d="M868 1079h-241q0 81 -30.5 122.5t-86.5 41.5q-119 0 -119 -174v-211h260v-207h-260v-438h467v-213h-854v213h129v438h-133v207h131v178q0 414 387 414q180 0 265 -91t85 -280z" />
    <glyph glyph-name="currency" unicode="&#xa4;" horiz-adv-x="909" 
d="M-41 983l156 164l86 -88q129 78 252 78q136 0 260 -78l88 88l147 -164l-84 -86q74 -124 74 -262q0 -152 -74 -264l84 -90l-147 -162l-88 88q-129 -78 -252 -78q-139 0 -260 78l-86 -88l-156 162l86 90q-40 75 -56 134t-16 128q0 141 72 264zM457 350q103 0 171 87.5
t68 197.5q0 68 -28.5 131.5t-84.5 106t-126 42.5q-101 0 -171.5 -85.5t-70.5 -194.5q0 -68 30 -133t87 -108.5t125 -43.5z" />
    <glyph glyph-name="yen" unicode="&#xa5;" horiz-adv-x="909" 
d="M-82 1430h336l205 -556l217 556h313l-334 -701h234v-184h-303v-162h303v-184h-303v-199h-289v199h-277v184h277v162h-277v184h211z" />
    <glyph glyph-name="brokenbar" unicode="&#xa6;" horiz-adv-x="512" 
d="M141 1354h230v-512h-230v512zM141 330h230v-512h-230v512z" />
    <glyph glyph-name="section" unicode="&#xa7;" horiz-adv-x="909" 
d="M801 1444v-230q-111 49 -174.5 66.5t-120.5 17.5q-55 0 -87 -23t-32 -61q0 -35 20.5 -57t63.5 -41q21 -9 62 -25t66.5 -26.5t61 -27.5t64.5 -36q61 -38 94 -97.5t33 -127.5q0 -159 -180 -262q74 -32 115.5 -90.5t41.5 -138.5q0 -147 -113.5 -229.5t-316.5 -82.5
q-180 0 -323 66v240q189 -86 315 -86q131 0 131 92q0 40 -34 66t-99 50q-13 5 -48 17.5t-53.5 20t-46.5 20t-51.5 26.5t-44.5 31q-40 32 -65 82.5t-25 108.5q0 178 195 270q-76 40 -114 101t-38 132q0 141 103 219t268 78q166 0 332 -63zM469 598q65 39 93 74t28 82
q0 57 -32.5 87t-108.5 64q-134 -55 -134 -147q0 -32 11 -56.5t35.5 -43.5t47 -31t60.5 -29z" />
    <glyph glyph-name="dieresis" unicode="&#xa8;" horiz-adv-x="569" 
d="M-10 1430h227v-222h-227v222zM352 1430h228v-222h-228v222z" />
    <glyph glyph-name="copyright" unicode="&#xa9;" horiz-adv-x="1638" 
d="M1591 745q0 -155 -60 -297t-162 -246.5t-246 -166.5t-304 -62q-158 0 -301.5 61.5t-247 165t-164.5 246.5t-61 299t60.5 299t164 247t247 165.5t302.5 61.5q158 0 301 -61.5t246 -165t164 -246.5t61 -300zM819 119q170 0 313.5 85t225.5 228.5t82 310.5q0 168 -82 312.5
t-226 230.5t-315 86q-168 0 -311 -85t-226 -229.5t-83 -312.5q0 -126 49 -241.5t132.5 -200t198.5 -134.5t242 -50zM1204 877h-182q-13 79 -66 124.5t-131 45.5q-98 0 -156.5 -79t-58.5 -214q0 -141 61 -223t165 -82q154 0 188 165h182q-15 -142 -118 -231.5t-250 -89.5
q-186 0 -307 129.5t-121 322.5q0 201 114.5 330t294.5 129q158 0 265.5 -90.5t119.5 -236.5z" />
    <glyph glyph-name="ordfeminine" unicode="&#xaa;" horiz-adv-x="614" 
d="M563 1303v-326q0 -34 8 -107h-174l-8 82h-4q-59 -96 -174 -96q-93 0 -135.5 56.5t-42.5 144.5q0 108 66 158.5t225 50.5h55v55q0 46 -17.5 66t-58.5 20q-36 0 -53 -20t-17 -66v-10h-184q0 96 57 144t185 48q149 0 210.5 -47.5t61.5 -152.5zM285 963q94 0 94 135v71
q-39 0 -59.5 -1.5t-44 -7t-34 -17t-17.5 -31.5t-7 -51q0 -98 68 -98z" />
    <glyph glyph-name="guillemotleft" unicode="&#xab;" horiz-adv-x="909" 
d="M250 915h237l-180 -401l180 -395h-239l-185 395zM608 915h238l-182 -401l176 -395h-236l-188 395z" />
    <glyph glyph-name="logicalnot" unicode="&#xac;" 
d="M51 821h920v-637h-223v418h-697v219z" />
    <glyph glyph-name="uni00AD" unicode="&#xad;" horiz-adv-x="681" 
d="M90 657h502v-208h-502v208z" />
    <glyph glyph-name="registered" unicode="&#xae;" horiz-adv-x="819" 
d="M784 1102q0 -157 -110 -266t-264 -109q-157 0 -267 111t-110 264q0 158 110.5 267.5t266.5 109.5q154 0 264 -109.5t110 -267.5zM410 795q128 0 217.5 91.5t89.5 215.5q0 128 -89.5 218.5t-219.5 90.5q-127 0 -217.5 -89.5t-90.5 -219.5q0 -128 91.5 -217.5t218.5 -89.5z
M250 1315h160q90 0 133 -29.5t43 -93.5q0 -41 -19 -63.5t-59 -36.5q42 -16 57 -44t15 -73q0 -55 10 -82h-101q-10 27 -10 86q0 42 -21 57t-67 15h-41v-158h-100v422zM350 1235v-107h51q82 0 82 54q0 24 -16.5 36.5t-32.5 14.5t-41 2h-43z" />
    <glyph glyph-name="macron" unicode="&#xaf;" horiz-adv-x="569" 
d="M-12 1386h592v-147h-592v147z" />
    <glyph glyph-name="degree" unicode="&#xb0;" horiz-adv-x="819" 
d="M717 1141q0 -127 -89.5 -217t-217.5 -90q-127 0 -217.5 89t-90.5 222q0 127 91.5 215t216.5 88q127 0 217 -90.5t90 -216.5zM412 995q59 0 101 42t42 104t-42 103.5t-105 41.5q-58 0 -101 -41t-43 -100q0 -66 42.5 -108t105.5 -42z" />
    <glyph glyph-name="plusminus" unicode="&#xb1;" 
d="M395 1110h236v-326h334v-219h-334v-315h-236v315h-336v219h336v326zM59 182h906v-221h-906v221z" />
    <glyph glyph-name="twosuperior" unicode="&#xb2;" horiz-adv-x="600" 
d="M553 1223q0 -101 -64 -199q-53 -80 -123 -164.5t-118 -130.5h313v-149h-536v163q169 194 231 287q62 91 78 128t16 77q0 65 -53 65q-57 0 -57 -90v-30h-201q-2 20 -2 51q0 104 70 161.5t190 57.5q122 0 189 -60t67 -167z" />
    <glyph glyph-name="threesuperior" unicode="&#xb3;" horiz-adv-x="600" 
d="M547 1214q0 -142 -88 -186q54 -30 76 -76.5t22 -122.5q0 -134 -69 -199t-209 -65q-122 0 -188 51.5t-66 180.5v34h202v-10q0 -62 11.5 -84t48.5 -22q35 0 49 23.5t14 84.5q0 77 -21 101t-93 24q-23 0 -41 -2v158h59q51 0 69.5 19.5t18.5 80.5q0 56 -12 78.5t-43 22.5
q-27 0 -39 -22t-12 -75v-6h-199q-2 20 -2 43q0 201 252 201q134 0 197 -56t63 -176z" />
    <glyph glyph-name="acute" unicode="&#xb4;" horiz-adv-x="569" 
d="M293 1479h276l-327 -293h-133z" />
    <glyph glyph-name="mu" unicode="&#xb5;" 
d="M115 1034h288v-725q0 -82 26 -116.5t83 -34.5t83 35t26 118v723h288v-1034h-288v104h-5q-72 -121 -213 -124v-371h-288v1425z" />
    <glyph glyph-name="paragraph" unicode="&#xb6;" horiz-adv-x="1126" 
d="M551 1450h547v-174h-109v-1653h-213v1653h-137v-1653h-213v871q-190 9 -298 139.5t-108 316.5q0 233 148.5 366.5t382.5 133.5z" />
    <glyph glyph-name="periodcentered" unicode="&#xb7;" horiz-adv-x="454" 
d="M106 741h240v-270h-240v270z" />
    <glyph glyph-name="cedilla" unicode="&#xb8;" horiz-adv-x="569" 
d="M109 -180l135 180h100l-90 -119l4 -4q24 8 45 8q80 0 134.5 -41t54.5 -112q0 -93 -71 -144t-177 -51q-90 0 -211 53l39 82q84 -32 133 -32q60 0 92.5 22t32.5 62q0 34 -28 52.5t-75 18.5q-41 0 -73 -14z" />
    <glyph glyph-name="onesuperior" unicode="&#xb9;" horiz-adv-x="600" 
d="M252 1436h186v-856h-211v624q-72 -55 -145 -86v187q26 9 48 21.5t42 29.5t30 26.5t29 30t21 23.5z" />
    <glyph glyph-name="ordmasculine" unicode="&#xba;" horiz-adv-x="614" 
d="M582 1188q0 -65 -5.5 -111.5t-22.5 -90.5t-47 -71t-80 -43t-120 -16q-86 0 -142 22.5t-84 69.5t-38 102t-10 138q0 59 4.5 100.5t21 85t45.5 69.5t80 43t123 17q71 0 121.5 -16t80 -42t46.5 -69t22 -85.5t5 -102.5zM307 967q52 0 69 44.5t17 184.5q0 113 -15.5 155
t-72.5 42q-29 0 -46.5 -12t-25.5 -41.5t-10 -59t-2 -84.5q0 -140 17 -184.5t69 -44.5z" />
    <glyph glyph-name="guillemotright" unicode="&#xbb;" horiz-adv-x="909" 
d="M63 915h238l193 -401l-189 -395h-237l178 395zM422 915h237l187 -401l-184 -395h-240l180 395z" />
    <glyph glyph-name="onequarter" unicode="&#xbc;" horiz-adv-x="1544" 
d="M244 1436h186v-856h-211v624q-72 -55 -145 -86v187q26 9 48 21.5t42 29.5t30 26.5t29 30t21 23.5zM975 1501h133l-545 -1558h-127zM1178 856h249v-516h68v-150h-68v-190h-192v190h-270v185zM1130 340h115l8 299q-65 -181 -123 -299z" />
    <glyph glyph-name="onehalf" unicode="&#xbd;" horiz-adv-x="1544" 
d="M244 1436h186v-856h-211v624q-72 -55 -145 -86v187q26 9 48 21.5t42 29.5t30 26.5t29 30t21 23.5zM975 1501h133l-545 -1558h-127zM1501 643q0 -102 -63 -199q-52 -79 -122.5 -163t-119.5 -131h313v-150h-536v164q169 194 231 287q62 91 78 127.5t16 76.5q0 66 -53 66
q-57 0 -57 -90v-31h-201q-2 20 -2 51q0 104 70 161.5t190 57.5q122 0 189 -60t67 -167z" />
    <glyph glyph-name="threequarters" unicode="&#xbe;" horiz-adv-x="1544" 
d="M547 1214q0 -142 -88 -186q54 -30 76 -76.5t22 -122.5q0 -134 -69 -199t-209 -65q-122 0 -188 51.5t-66 180.5v34h202v-10q0 -62 11.5 -84t48.5 -22q35 0 49 23.5t14 84.5q0 77 -21 101t-93 24q-23 0 -41 -2v158h59q51 0 69.5 19.5t18.5 80.5q0 56 -12 78.5t-43 22.5
q-27 0 -39 -22t-12 -75v-6h-199q-2 20 -2 43q0 201 252 201q134 0 197 -56t63 -176zM1010 1501h133l-545 -1558h-127zM1155 856h250v-516h68v-150h-68v-190h-193v190h-270v185zM1108 340h115l8 299q-65 -181 -123 -299z" />
    <glyph glyph-name="questiondown" unicode="&#xbf;" horiz-adv-x="909" 
d="M346 1055h246v-246h-246v246zM367 659h211v-208q0 -94 -105 -263q-64 -103 -89.5 -166t-25.5 -114q0 -77 29 -112.5t90 -35.5q59 0 85 43.5t26 137.5v30h246v-43q0 -62 -8.5 -112t-34 -101t-66.5 -86t-111 -56.5t-163 -21.5q-171 0 -273 90t-102 242q0 105 36 195
t126 194q83 95 106 144.5t23 105.5v137z" />
    <glyph glyph-name="Agrave" unicode="&#xc0;" horiz-adv-x="1251" 
d="M426 1479h408l401 -1479h-326l-82 328h-421l-84 -328h-306zM610 1194l-145 -643h299zM342 1923h276l185 -293h-133z" />
    <glyph glyph-name="Aacute" unicode="&#xc1;" horiz-adv-x="1251" 
d="M426 1479h408l401 -1479h-326l-82 328h-421l-84 -328h-306zM610 1194l-145 -643h299zM635 1923h276l-327 -293h-133z" />
    <glyph glyph-name="Acircumflex" unicode="&#xc2;" horiz-adv-x="1251" 
d="M426 1479h408l401 -1479h-326l-82 328h-421l-84 -328h-306zM610 1194l-145 -643h299zM510 1923h227l221 -293h-190l-143 182l-146 -182h-186z" />
    <glyph glyph-name="Atilde" unicode="&#xc3;" horiz-adv-x="1251" 
d="M426 1479h408l401 -1479h-326l-82 328h-421l-84 -328h-306zM610 1194l-145 -643h299zM860 1892h125q-18 -117 -80.5 -187.5t-132.5 -70.5q-56 0 -109.5 22.5t-103 45t-96.5 22.5q-62 0 -80 -90h-121q16 110 74 184t139 74q43 0 100.5 -24.5t109.5 -49t81 -24.5
q84 0 94 98z" />
    <glyph glyph-name="Adieresis" unicode="&#xc4;" horiz-adv-x="1251" 
d="M426 1479h408l401 -1479h-326l-82 328h-421l-84 -328h-306zM610 1194l-145 -643h299zM332 1874h227v-221h-227v221zM694 1874h228v-221h-228v221z" />
    <glyph glyph-name="Aring" unicode="&#xc5;" horiz-adv-x="1251" 
d="M426 1479h408l401 -1479h-326l-82 328h-421l-84 -328h-306zM610 1194l-145 -643h299zM838 1772q0 -87 -62 -150t-151 -63t-151 63t-62 150t63 150t150 63q89 0 151 -64t62 -149zM625 1651q51 0 85.5 35.5t34.5 85.5q0 48 -35 84t-85 36q-51 0 -86 -35t-35 -85t34.5 -85.5
t86.5 -35.5z" />
    <glyph glyph-name="AE" unicode="&#xc6;" horiz-adv-x="1705" 
d="M504 1479h1100v-228h-592l67 -364h496v-228h-457l82 -432h442v-227h-708l-55 328h-461l-99 -328h-303zM711 1284h-4l-215 -729h346z" />
    <glyph glyph-name="Ccedilla" unicode="&#xc7;" horiz-adv-x="1138" 
d="M1067 498v-43q0 -451 -420 -469l-78 -105l4 -4q24 8 45 8q81 0 135 -41.5t54 -111.5q0 -94 -72.5 -144.5t-175.5 -50.5q-91 0 -211 53l39 82q87 -32 133 -32q60 0 92.5 22t32.5 62q0 35 -28.5 53t-73.5 18q-43 0 -74 -14l-45 39l125 166q-69 4 -126 20.5t-99.5 40
t-75.5 61.5t-55.5 75.5t-38 93t-24 102t-13 115t-5.5 119t-1 126.5q0 95 1.5 154t8 140.5t21 131.5t38.5 110.5t62 96t90 68t125 47t164 14.5q215 0 322.5 -109t107.5 -335v-45h-303v28q0 236 -148 236q-36 0 -63.5 -14t-46.5 -36.5t-32 -63.5t-20.5 -81.5t-11.5 -105
t-5 -119.5t-1 -139v-80t1 -75.5t3.5 -74t7 -65t11.5 -61.5t16.5 -51t23 -44.5t30.5 -30.5t39.5 -21.5t49.5 -6.5q160 0 160 274v17h305z" />
    <glyph glyph-name="Egrave" unicode="&#xc8;" 
d="M129 1479h807v-228h-498v-364h459v-228h-459v-428h514v-231h-823v1479zM227 1923h277l184 -293h-133z" />
    <glyph glyph-name="Eacute" unicode="&#xc9;" 
d="M129 1479h807v-228h-498v-364h459v-228h-459v-428h514v-231h-823v1479zM520 1923h277l-328 -293h-133z" />
    <glyph glyph-name="Ecircumflex" unicode="&#xca;" 
d="M129 1479h807v-228h-498v-364h459v-228h-459v-428h514v-231h-823v1479zM395 1923h228l221 -293h-191l-143 182l-145 -182h-187z" />
    <glyph glyph-name="Edieresis" unicode="&#xcb;" 
d="M129 1479h807v-228h-498v-364h459v-228h-459v-428h514v-231h-823v1479zM217 1874h227v-221h-227v221zM580 1874h227v-221h-227v221z" />
    <glyph glyph-name="Igrave" unicode="&#xcc;" horiz-adv-x="569" 
d="M129 1479h309v-1479h-309v1479zM0 1923h276l185 -293h-133z" />
    <glyph glyph-name="Iacute" unicode="&#xcd;" horiz-adv-x="569" 
d="M129 1479h309v-1479h-309v1479zM293 1923h276l-327 -293h-133z" />
    <glyph glyph-name="Icircumflex" unicode="&#xce;" horiz-adv-x="569" 
d="M129 1479h309v-1479h-309v1479zM168 1923h227l221 -293h-190l-143 182l-146 -182h-186z" />
    <glyph glyph-name="Idieresis" unicode="&#xcf;" horiz-adv-x="569" 
d="M129 1479h309v-1479h-309v1479zM-10 1874h227v-221h-227v221zM352 1874h228v-221h-228v221z" />
    <glyph glyph-name="Eth" unicode="&#xd0;" horiz-adv-x="1251" 
d="M135 1479h475q104 0 184 -20t135 -51t93.5 -87.5t60 -112t33 -142t14.5 -159.5t3 -182q0 -83 -2.5 -145.5t-9.5 -129.5t-20 -116.5t-33.5 -98.5t-50 -83.5t-70 -65t-93 -48.5t-119.5 -28t-149 -10h-451v666h-119v213h119v600zM451 1251v-372h204v-213h-204v-435h90
q88 0 132 14.5t77 53.5q45 53 59 154.5t14 263.5q0 184 -12.5 284t-40.5 158q-26 54 -79.5 73t-149.5 19h-90z" />
    <glyph glyph-name="Ntilde" unicode="&#xd1;" horiz-adv-x="1366" 
d="M133 1479h416l395 -1024v1024h287v-1479h-406l-405 1081v-1081h-287v1479zM918 1892h124q-18 -117 -80.5 -187.5t-132.5 -70.5q-56 0 -109.5 22.5t-103 45t-96.5 22.5q-62 0 -80 -90h-121q16 110 74 184t139 74q43 0 100.5 -24.5t109.5 -49t81 -24.5q85 0 95 98z" />
    <glyph glyph-name="Ograve" unicode="&#xd2;" horiz-adv-x="1251" 
d="M1139 750q0 -89 -1 -144.5t-6.5 -131.5t-15 -123.5t-28 -106.5t-45 -94.5t-65.5 -73t-90 -57.5t-119 -33t-151 -13q-78 0 -142 13t-112.5 35t-86.5 59t-64 76t-45 96t-29.5 108.5t-16.5 123.5t-7.5 132t-1.5 142q0 79 2.5 140.5t9 129.5t18 119.5t31.5 104.5t47 91.5
t65 73t86.5 55.5t111.5 33.5t139 12.5q104 0 184 -20t134.5 -51t92 -89t58 -112.5t31.5 -145t13.5 -162.5t2.5 -188zM428 840v-125q0 -81 1.5 -138t6.5 -115.5t13.5 -97t23 -74t35 -55t49.5 -31t66 -11.5q29 0 53 4.5t43 17.5t33.5 26.5t25.5 40t18.5 49t12.5 64t8 74t4 89
t1.5 99.5t0.5 115v141q0 148 -21 232t-63 117.5t-114 33.5q-116 0 -156.5 -100.5t-40.5 -355.5zM342 1923h276l185 -293h-133z" />
    <glyph glyph-name="Oacute" unicode="&#xd3;" horiz-adv-x="1251" 
d="M1139 750q0 -89 -1 -144.5t-6.5 -131.5t-15 -123.5t-28 -106.5t-45 -94.5t-65.5 -73t-90 -57.5t-119 -33t-151 -13q-78 0 -142 13t-112.5 35t-86.5 59t-64 76t-45 96t-29.5 108.5t-16.5 123.5t-7.5 132t-1.5 142q0 79 2.5 140.5t9 129.5t18 119.5t31.5 104.5t47 91.5
t65 73t86.5 55.5t111.5 33.5t139 12.5q104 0 184 -20t134.5 -51t92 -89t58 -112.5t31.5 -145t13.5 -162.5t2.5 -188zM428 840v-125q0 -81 1.5 -138t6.5 -115.5t13.5 -97t23 -74t35 -55t49.5 -31t66 -11.5q29 0 53 4.5t43 17.5t33.5 26.5t25.5 40t18.5 49t12.5 64t8 74t4 89
t1.5 99.5t0.5 115v141q0 148 -21 232t-63 117.5t-114 33.5q-116 0 -156.5 -100.5t-40.5 -355.5zM635 1923h276l-327 -293h-133z" />
    <glyph glyph-name="Ocircumflex" unicode="&#xd4;" horiz-adv-x="1251" 
d="M1139 750q0 -89 -1 -144.5t-6.5 -131.5t-15 -123.5t-28 -106.5t-45 -94.5t-65.5 -73t-90 -57.5t-119 -33t-151 -13q-78 0 -142 13t-112.5 35t-86.5 59t-64 76t-45 96t-29.5 108.5t-16.5 123.5t-7.5 132t-1.5 142q0 79 2.5 140.5t9 129.5t18 119.5t31.5 104.5t47 91.5
t65 73t86.5 55.5t111.5 33.5t139 12.5q104 0 184 -20t134.5 -51t92 -89t58 -112.5t31.5 -145t13.5 -162.5t2.5 -188zM428 840v-125q0 -81 1.5 -138t6.5 -115.5t13.5 -97t23 -74t35 -55t49.5 -31t66 -11.5q29 0 53 4.5t43 17.5t33.5 26.5t25.5 40t18.5 49t12.5 64t8 74t4 89
t1.5 99.5t0.5 115v141q0 148 -21 232t-63 117.5t-114 33.5q-116 0 -156.5 -100.5t-40.5 -355.5zM510 1923h227l221 -293h-190l-143 182l-146 -182h-186z" />
    <glyph glyph-name="Otilde" unicode="&#xd5;" horiz-adv-x="1251" 
d="M1139 750q0 -89 -1 -144.5t-6.5 -131.5t-15 -123.5t-28 -106.5t-45 -94.5t-65.5 -73t-90 -57.5t-119 -33t-151 -13q-78 0 -142 13t-112.5 35t-86.5 59t-64 76t-45 96t-29.5 108.5t-16.5 123.5t-7.5 132t-1.5 142q0 79 2.5 140.5t9 129.5t18 119.5t31.5 104.5t47 91.5
t65 73t86.5 55.5t111.5 33.5t139 12.5q104 0 184 -20t134.5 -51t92 -89t58 -112.5t31.5 -145t13.5 -162.5t2.5 -188zM428 840v-125q0 -81 1.5 -138t6.5 -115.5t13.5 -97t23 -74t35 -55t49.5 -31t66 -11.5q29 0 53 4.5t43 17.5t33.5 26.5t25.5 40t18.5 49t12.5 64t8 74t4 89
t1.5 99.5t0.5 115v141q0 148 -21 232t-63 117.5t-114 33.5q-116 0 -156.5 -100.5t-40.5 -355.5zM860 1892h125q-18 -117 -80.5 -187.5t-132.5 -70.5q-56 0 -109.5 22.5t-103 45t-96.5 22.5q-62 0 -80 -90h-121q16 110 74 184t139 74q43 0 100.5 -24.5t109.5 -49t81 -24.5
q84 0 94 98z" />
    <glyph glyph-name="Odieresis" unicode="&#xd6;" horiz-adv-x="1251" 
d="M1139 750q0 -89 -1 -144.5t-6.5 -131.5t-15 -123.5t-28 -106.5t-45 -94.5t-65.5 -73t-90 -57.5t-119 -33t-151 -13q-78 0 -142 13t-112.5 35t-86.5 59t-64 76t-45 96t-29.5 108.5t-16.5 123.5t-7.5 132t-1.5 142q0 79 2.5 140.5t9 129.5t18 119.5t31.5 104.5t47 91.5
t65 73t86.5 55.5t111.5 33.5t139 12.5q104 0 184 -20t134.5 -51t92 -89t58 -112.5t31.5 -145t13.5 -162.5t2.5 -188zM428 840v-125q0 -81 1.5 -138t6.5 -115.5t13.5 -97t23 -74t35 -55t49.5 -31t66 -11.5q29 0 53 4.5t43 17.5t33.5 26.5t25.5 40t18.5 49t12.5 64t8 74t4 89
t1.5 99.5t0.5 115v141q0 148 -21 232t-63 117.5t-114 33.5q-116 0 -156.5 -100.5t-40.5 -355.5zM332 1874h227v-221h-227v221zM694 1874h228v-221h-228v221z" />
    <glyph glyph-name="multiply" unicode="&#xd7;" 
d="M211 979l301 -301l301 301l160 -160l-301 -301l301 -301l-160 -160l-301 301l-301 -301l-160 160l301 301l-301 301z" />
    <glyph glyph-name="Oslash" unicode="&#xd8;" horiz-adv-x="1251" 
d="M999 1397l95 141l135 -84l-139 -207q31 -91 40 -207t9 -292q0 -90 -1 -142t-6 -129.5t-14.5 -123t-27.5 -106t-44 -95.5t-65.5 -73.5t-90.5 -58.5t-119.5 -33.5t-152.5 -13.5q-204 0 -321 90l-107 -157l-137 86l137 205q-41 86 -59 203.5t-18 357.5q0 79 2.5 141t9 130
t18.5 120t32 105t47 91t65.5 72.5t87 55.5t111.5 33t139 12q253 0 374 -121zM430 551l379 563q-17 96 -60 139t-124 43q-44 0 -76 -12.5t-53.5 -42t-35 -67t-20.5 -98.5t-9.5 -124t-2.5 -157v-150q0 -47 2 -94zM823 786v62l-360 -537q41 -118 160 -118q50 0 84.5 13.5
t56.5 54t34 76t17.5 119.5t6.5 141.5t1 182.5v6z" />
    <glyph glyph-name="Ugrave" unicode="&#xd9;" horiz-adv-x="1251" 
d="M123 1479h309v-996q0 -148 46 -219t143 -71q204 0 204 288v998h301v-992q0 -263 -124 -388.5t-386 -125.5q-252 0 -372.5 127.5t-120.5 388.5v990zM342 1923h276l185 -293h-133z" />
    <glyph glyph-name="Uacute" unicode="&#xda;" horiz-adv-x="1251" 
d="M123 1479h309v-996q0 -148 46 -219t143 -71q204 0 204 288v998h301v-992q0 -263 -124 -388.5t-386 -125.5q-252 0 -372.5 127.5t-120.5 388.5v990zM635 1923h276l-327 -293h-133z" />
    <glyph glyph-name="Ucircumflex" unicode="&#xdb;" horiz-adv-x="1251" 
d="M123 1479h309v-996q0 -148 46 -219t143 -71q204 0 204 288v998h301v-992q0 -263 -124 -388.5t-386 -125.5q-252 0 -372.5 127.5t-120.5 388.5v990zM510 1923h227l221 -293h-190l-143 182l-146 -182h-186z" />
    <glyph glyph-name="Udieresis" unicode="&#xdc;" horiz-adv-x="1251" 
d="M123 1479h309v-996q0 -148 46 -219t143 -71q204 0 204 288v998h301v-992q0 -263 -124 -388.5t-386 -125.5q-252 0 -372.5 127.5t-120.5 388.5v990zM332 1874h227v-221h-227v221zM694 1874h228v-221h-228v221z" />
    <glyph glyph-name="Yacute" unicode="&#xdd;" horiz-adv-x="1138" 
d="M14 1479h338l221 -625l236 625h315l-411 -936v-543h-314v543zM578 1923h276l-328 -293h-133z" />
    <glyph glyph-name="Thorn" unicode="&#xde;" horiz-adv-x="1138" 
d="M131 1479h309v-265h252q190 0 289.5 -109.5t99.5 -332.5q0 -213 -104.5 -323.5t-304.5 -110.5h-232v-338h-309v1479zM440 565h174q62 0 108 59t46 142q0 221 -170 221h-158v-422z" />
    <glyph glyph-name="germandbls" unicode="&#xdf;" horiz-adv-x="1138" 
d="M565 1503q416 0 416 -309q0 -70 -26 -123.5t-91 -114.5q-37 -34 -53 -62t-16 -63q0 -37 23.5 -73.5t80.5 -93.5q98 -96 136 -173.5t38 -164.5q0 -161 -110 -253.5t-299 -92.5q-60 0 -138 20v211q36 -10 95 -10q91 0 130.5 28t39.5 88q0 72 -99 189q-9 10 -39.5 45.5
t-43 50.5t-35.5 47t-33.5 53t-19.5 50t-9 55q0 34 15 65t28 45t41 41q102 95 102 211q0 70 -33 111t-100 41q-82 0 -125 -53.5t-43 -124.5v-1143h-282v1124q0 379 450 379z" />
    <glyph glyph-name="agrave" unicode="&#xe0;" 
d="M897 725v-498q0 -112 16 -227h-268l-14 137q-92 -155 -266 -155q-134 0 -206.5 84t-72.5 237q0 129 45 203q46 76 138 110.5t272 34.5h75v117q0 66 -26 97.5t-90 31.5q-61 0 -89 -37.5t-28 -124.5h-272v15q0 161 100.5 233t298.5 72q204 0 295.5 -80t91.5 -250zM475 156
q75 0 112.5 63t37.5 199v82h-23q-158 0 -205 -54q-28 -32 -28 -120q0 -36 3 -60.5t12.5 -52.5t32 -42.5t58.5 -14.5zM203 1481h278l185 -295h-168z" />
    <glyph glyph-name="aacute" unicode="&#xe1;" 
d="M897 725v-498q0 -112 16 -227h-268l-14 137q-92 -155 -266 -155q-134 0 -206.5 84t-72.5 237q0 129 45 203q46 76 138 110.5t272 34.5h75v117q0 66 -26 97.5t-90 31.5q-61 0 -89 -37.5t-28 -124.5h-272v15q0 161 100.5 233t298.5 72q204 0 295.5 -80t91.5 -250zM475 156
q75 0 112.5 63t37.5 199v82h-23q-158 0 -205 -54q-28 -32 -28 -120q0 -36 3 -60.5t12.5 -52.5t32 -42.5t58.5 -14.5zM520 1479h277l-328 -293h-133z" />
    <glyph glyph-name="acircumflex" unicode="&#xe2;" 
d="M897 725v-498q0 -112 16 -227h-268l-14 137q-92 -155 -266 -155q-134 0 -206.5 84t-72.5 237q0 129 45 203q46 76 138 110.5t272 34.5h75v117q0 66 -26 97.5t-90 31.5q-61 0 -89 -37.5t-28 -124.5h-272v15q0 161 100.5 233t298.5 72q204 0 295.5 -80t91.5 -250zM475 156
q75 0 112.5 63t37.5 199v82h-23q-158 0 -205 -54q-28 -32 -28 -120q0 -36 3 -60.5t12.5 -52.5t32 -42.5t58.5 -14.5zM395 1479h228l221 -293h-191l-143 182l-145 -182h-187z" />
    <glyph glyph-name="atilde" unicode="&#xe3;" 
d="M897 725v-498q0 -112 16 -227h-268l-14 137q-92 -155 -266 -155q-134 0 -206.5 84t-72.5 237q0 129 45 203q46 76 138 110.5t272 34.5h75v117q0 66 -26 97.5t-90 31.5q-61 0 -89 -37.5t-28 -124.5h-272v15q0 161 100.5 233t298.5 72q204 0 295.5 -80t91.5 -250zM475 156
q75 0 112.5 63t37.5 199v82h-23q-158 0 -205 -54q-28 -32 -28 -120q0 -36 3 -60.5t12.5 -52.5t32 -42.5t58.5 -14.5zM745 1448h125q-18 -117 -80.5 -187.5t-132.5 -70.5q-56 0 -109.5 22.5t-103 45t-96.5 22.5q-62 0 -80 -90h-121q16 110 74 184t139 74q54 0 156 -49
t135 -49q84 0 94 98z" />
    <glyph glyph-name="adieresis" unicode="&#xe4;" 
d="M897 725v-498q0 -112 16 -227h-268l-14 137q-92 -155 -266 -155q-134 0 -206.5 84t-72.5 237q0 129 45 203q46 76 138 110.5t272 34.5h75v117q0 66 -26 97.5t-90 31.5q-61 0 -89 -37.5t-28 -124.5h-272v15q0 161 100.5 233t298.5 72q204 0 295.5 -80t91.5 -250zM475 156
q75 0 112.5 63t37.5 199v82h-23q-158 0 -205 -54q-28 -32 -28 -120q0 -36 3 -60.5t12.5 -52.5t32 -42.5t58.5 -14.5zM217 1430h227v-222h-227v222zM580 1430h227v-222h-227v222z" />
    <glyph glyph-name="aring" unicode="&#xe5;" 
d="M897 725v-498q0 -112 16 -227h-268l-14 137q-92 -155 -266 -155q-134 0 -206.5 84t-72.5 237q0 129 45 203q46 76 138 110.5t272 34.5h75v117q0 66 -26 97.5t-90 31.5q-61 0 -89 -37.5t-28 -124.5h-272v15q0 161 100.5 233t298.5 72q204 0 295.5 -80t91.5 -250zM475 156
q75 0 112.5 63t37.5 199v82h-23q-158 0 -205 -54q-28 -32 -28 -120q0 -36 3 -60.5t12.5 -52.5t32 -42.5t58.5 -14.5zM725 1327q0 -87 -62 -150t-151 -63t-151 63t-62 150t63 150t150 63q89 0 151 -64t62 -149zM512 1206q51 0 86 35.5t35 85.5q0 48 -35.5 84.5t-85.5 36.5
q-51 0 -86 -35.5t-35 -85.5t34.5 -85.5t86.5 -35.5z" />
    <glyph glyph-name="ae" unicode="&#xe6;" horiz-adv-x="1593" 
d="M811 909q44 73 109.5 109.5t166.5 36.5q78 0 140 -14t105.5 -38t75.5 -61.5t50.5 -77.5t30 -94t15 -103.5t3.5 -111.5v-74h-563q0 -43 1 -71t5 -69.5t13.5 -69t24 -54t39.5 -40t58 -13.5q123 0 123 184h293q-9 -181 -117 -274.5t-299 -93.5q-127 0 -206 47t-107 133
q-52 -93 -133 -136.5t-213 -43.5q-164 0 -253 85t-89 240q0 82 20.5 141.5t55.5 96t93 59t120 31.5t149 12q29 0 140 -2v98q0 75 -31 113.5t-109 38.5q-129 0 -129 -160h-282q1 77 22 134t56 92.5t87.5 57.5t108.5 30t127 8q234 0 299 -146zM944 643h275v35q0 215 -134 215
q-141 0 -141 -225v-25zM498 164q89 0 127.5 53.5t38.5 161.5q0 41 -2 102q-74 4 -95 4q-49 0 -82 -6.5t-62 -25.5t-42.5 -57t-13.5 -97q0 -64 33 -99.5t98 -35.5z" />
    <glyph glyph-name="ccedilla" unicode="&#xe7;" 
d="M926 381v-25q0 -337 -353 -366l-79 -109l4 -4q24 8 47 8q79 0 132.5 -41t53.5 -112q0 -64 -37 -109.5t-91.5 -65.5t-119.5 -20q-90 0 -211 53l39 82q86 -32 133 -32q58 0 91.5 21.5t33.5 62.5q0 34 -28 52.5t-74 18.5t-74 -14l-45 39l125 166q-169 6 -270 104
q-56 55 -81.5 135.5t-25.5 200.5v76q0 184 29 313q20 81 80.5 135.5t139 77.5t171.5 23q404 0 404 -355v-30h-277q-1 43 -2.5 67.5t-8 54t-19 44.5t-35 25.5t-54.5 10.5q-81 0 -110 -63t-29 -211v-148q0 -153 26.5 -215.5t104.5 -62.5q68 0 99.5 47.5t31.5 144.5v21h279z
" />
    <glyph glyph-name="egrave" unicode="&#xe8;" 
d="M932 471h-547v-102q0 -109 31 -158t98 -49q119 0 119 166v20h293q-9 -187 -114 -277.5t-310 -90.5q-148 0 -238 47q-56 29 -92 77.5t-52.5 118.5t-22 135.5t-5.5 161.5q0 76 3.5 131.5t14 115t29 100.5t50.5 79.5t77 61t108.5 36t145.5 13.5q190 0 289 -86
q125 -108 125 -389v-54zM385 631h250v67q0 176 -123 176q-71 0 -99 -53.5t-28 -158.5v-31zM203 1481h278l185 -295h-168z" />
    <glyph glyph-name="eacute" unicode="&#xe9;" 
d="M932 471h-547v-102q0 -109 31 -158t98 -49q119 0 119 166v20h293q-9 -187 -114 -277.5t-310 -90.5q-148 0 -238 47q-56 29 -92 77.5t-52.5 118.5t-22 135.5t-5.5 161.5q0 76 3.5 131.5t14 115t29 100.5t50.5 79.5t77 61t108.5 36t145.5 13.5q190 0 289 -86
q125 -108 125 -389v-54zM385 631h250v67q0 176 -123 176q-71 0 -99 -53.5t-28 -158.5v-31zM520 1479h277l-328 -293h-133z" />
    <glyph glyph-name="ecircumflex" unicode="&#xea;" 
d="M932 471h-547v-102q0 -109 31 -158t98 -49q119 0 119 166v20h293q-9 -187 -114 -277.5t-310 -90.5q-148 0 -238 47q-56 29 -92 77.5t-52.5 118.5t-22 135.5t-5.5 161.5q0 76 3.5 131.5t14 115t29 100.5t50.5 79.5t77 61t108.5 36t145.5 13.5q190 0 289 -86
q125 -108 125 -389v-54zM385 631h250v67q0 176 -123 176q-71 0 -99 -53.5t-28 -158.5v-31zM395 1479h228l221 -293h-191l-143 182l-145 -182h-187z" />
    <glyph glyph-name="edieresis" unicode="&#xeb;" 
d="M932 471h-547v-102q0 -109 31 -158t98 -49q119 0 119 166v20h293q-9 -187 -114 -277.5t-310 -90.5q-148 0 -238 47q-56 29 -92 77.5t-52.5 118.5t-22 135.5t-5.5 161.5q0 76 3.5 131.5t14 115t29 100.5t50.5 79.5t77 61t108.5 36t145.5 13.5q190 0 289 -86
q125 -108 125 -389v-54zM385 631h250v67q0 176 -123 176q-71 0 -99 -53.5t-28 -158.5v-31zM217 1430h227v-222h-227v222zM580 1430h227v-222h-227v222z" />
    <glyph glyph-name="igrave" unicode="&#xec;" horiz-adv-x="569" 
d="M139 1034h289v-1034h-289v1034zM-25 1481h279l184 -295h-168z" />
    <glyph glyph-name="iacute" unicode="&#xed;" horiz-adv-x="569" 
d="M139 1034h289v-1034h-289v1034zM293 1479h276l-327 -293h-133z" />
    <glyph glyph-name="icircumflex" unicode="&#xee;" horiz-adv-x="569" 
d="M139 1034h289v-1034h-289v1034zM168 1479h227l221 -293h-190l-143 182l-146 -182h-186z" />
    <glyph glyph-name="idieresis" unicode="&#xef;" horiz-adv-x="569" 
d="M139 1034h289v-1034h-289v1034zM-10 1430h227v-222h-227v222zM352 1430h228v-222h-228v222z" />
    <glyph glyph-name="eth" unicode="&#xf0;" 
d="M193 1366l155 172q125 -41 217 -108l168 108l76 -76l-147 -96q67 -76 107 -130.5t75.5 -124.5t53 -149.5t27 -185.5t9.5 -252q0 -107 -8 -182t-34 -148t-71 -117t-122.5 -70.5t-186.5 -26.5q-107 0 -183 25.5t-122 68t-72.5 113.5t-35.5 147.5t-9 183.5q0 251 83.5 383.5
t275.5 132.5q69 0 112 -20.5t96 -73.5l5 4q-33 86 -93.5 162.5t-126.5 118.5l-176 -113l-82 72l158 102q-5 3 -20 13.5t-18.5 12.5t-15.5 9t-18.5 9.5t-19 8t-26 10t-31.5 9.5v8zM512 164q54 0 81.5 29.5t39.5 108t12 235.5q0 70 -2 112.5t-9.5 85.5t-21.5 65t-39 36t-61 14
t-61 -14t-39 -36t-21.5 -65t-9.5 -85.5t-2 -112.5q0 -93 3.5 -152.5t11.5 -105.5t23.5 -69.5t38 -34.5t56.5 -11z" />
    <glyph glyph-name="ntilde" unicode="&#xf1;" 
d="M909 799v-799h-288v709q0 28 -1 44.5t-6 42.5t-15.5 40.5t-31 26t-49.5 11.5q-57 0 -86 -42t-29 -109v-723h-288v1034h284l4 -104q82 125 240 125q125 0 195.5 -66t70.5 -190zM745 1448h125q-18 -117 -80.5 -187.5t-132.5 -70.5q-56 0 -109.5 22.5t-103 45t-96.5 22.5
q-62 0 -80 -90h-121q16 110 74 184t139 74q54 0 156 -49t135 -49q84 0 94 98z" />
    <glyph glyph-name="ograve" unicode="&#xf2;" 
d="M934 539q0 -116 -9 -196t-36 -155t-75.5 -119t-129 -70t-195.5 -26q-99 0 -171 26.5t-115.5 71.5t-69 116.5t-34.5 147.5t-9 179q0 73 3.5 129t14.5 115.5t29.5 102.5t50 82.5t74.5 64t104.5 39t139.5 14.5q106 0 182 -22t123.5 -61.5t75 -106t37.5 -144.5t10 -188z
M510 162q76 0 104.5 68.5t28.5 238.5v121q0 159 -24.5 224t-104.5 65q-36 0 -61.5 -15t-39.5 -38t-22 -62t-10 -75.5t-2 -90.5v-78q0 -148 11 -222t38.5 -105t81.5 -31zM203 1481h278l185 -295h-168z" />
    <glyph glyph-name="oacute" unicode="&#xf3;" 
d="M934 539q0 -116 -9 -196t-36 -155t-75.5 -119t-129 -70t-195.5 -26q-99 0 -171 26.5t-115.5 71.5t-69 116.5t-34.5 147.5t-9 179q0 73 3.5 129t14.5 115.5t29.5 102.5t50 82.5t74.5 64t104.5 39t139.5 14.5q106 0 182 -22t123.5 -61.5t75 -106t37.5 -144.5t10 -188z
M510 162q76 0 104.5 68.5t28.5 238.5v121q0 159 -24.5 224t-104.5 65q-36 0 -61.5 -15t-39.5 -38t-22 -62t-10 -75.5t-2 -90.5v-78q0 -148 11 -222t38.5 -105t81.5 -31zM541 1479h276l-328 -293h-133z" />
    <glyph glyph-name="ocircumflex" unicode="&#xf4;" 
d="M934 539q0 -116 -9 -196t-36 -155t-75.5 -119t-129 -70t-195.5 -26q-99 0 -171 26.5t-115.5 71.5t-69 116.5t-34.5 147.5t-9 179q0 73 3.5 129t14.5 115.5t29.5 102.5t50 82.5t74.5 64t104.5 39t139.5 14.5q106 0 182 -22t123.5 -61.5t75 -106t37.5 -144.5t10 -188z
M510 162q76 0 104.5 68.5t28.5 238.5v121q0 159 -24.5 224t-104.5 65q-36 0 -61.5 -15t-39.5 -38t-22 -62t-10 -75.5t-2 -90.5v-78q0 -148 11 -222t38.5 -105t81.5 -31zM395 1479h228l221 -293h-191l-143 182l-145 -182h-187z" />
    <glyph glyph-name="otilde" unicode="&#xf5;" 
d="M934 539q0 -116 -9 -196t-36 -155t-75.5 -119t-129 -70t-195.5 -26q-99 0 -171 26.5t-115.5 71.5t-69 116.5t-34.5 147.5t-9 179q0 73 3.5 129t14.5 115.5t29.5 102.5t50 82.5t74.5 64t104.5 39t139.5 14.5q106 0 182 -22t123.5 -61.5t75 -106t37.5 -144.5t10 -188z
M510 162q76 0 104.5 68.5t28.5 238.5v121q0 159 -24.5 224t-104.5 65q-36 0 -61.5 -15t-39.5 -38t-22 -62t-10 -75.5t-2 -90.5v-78q0 -148 11 -222t38.5 -105t81.5 -31zM745 1448h125q-18 -117 -80.5 -187.5t-132.5 -70.5q-56 0 -109.5 22.5t-103 45t-96.5 22.5
q-62 0 -80 -90h-121q16 110 74 184t139 74q54 0 156 -49t135 -49q84 0 94 98z" />
    <glyph glyph-name="odieresis" unicode="&#xf6;" 
d="M934 539q0 -116 -9 -196t-36 -155t-75.5 -119t-129 -70t-195.5 -26q-99 0 -171 26.5t-115.5 71.5t-69 116.5t-34.5 147.5t-9 179q0 73 3.5 129t14.5 115.5t29.5 102.5t50 82.5t74.5 64t104.5 39t139.5 14.5q106 0 182 -22t123.5 -61.5t75 -106t37.5 -144.5t10 -188z
M510 162q76 0 104.5 68.5t28.5 238.5v121q0 159 -24.5 224t-104.5 65q-36 0 -61.5 -15t-39.5 -38t-22 -62t-10 -75.5t-2 -90.5v-78q0 -148 11 -222t38.5 -105t81.5 -31zM217 1430h227v-222h-227v222zM580 1430h227v-222h-227v222z" />
    <glyph glyph-name="divide" unicode="&#xf7;" 
d="M381 1026h262v-246h-262v246zM51 627h922v-219h-922v219zM381 252h262v-246h-262v246z" />
    <glyph glyph-name="oslash" unicode="&#xf8;" 
d="M809 979l109 137l92 -67l-129 -164q53 -114 53 -348q0 -117 -9 -197.5t-36.5 -154.5t-76 -117.5t-129.5 -69t-196 -25.5q-173 0 -266 80l-100 -127l-96 68l122 156q-57 116 -57 364q0 107 8.5 183t34.5 149t71 117.5t120.5 71t181.5 26.5q202 0 303 -82zM373 580v-146
l264 330q-13 59 -40.5 89t-80.5 30q-45 0 -74 -20t-44 -62.5t-20 -93t-5 -127.5zM651 596l-260 -330q13 -58 41.5 -83t77.5 -25q78 0 109.5 75t31.5 261v102z" />
    <glyph glyph-name="ugrave" unicode="&#xf9;" 
d="M121 1034h287v-710q0 -82 23.5 -121t72.5 -39q53 0 81.5 44.5t28.5 119.5v706h289v-821q0 -69 4 -213h-280l-4 111q-44 -67 -103 -98t-143 -31q-125 0 -190.5 72t-65.5 198v782zM203 1481h278l185 -295h-168z" />
    <glyph glyph-name="uacute" unicode="&#xfa;" 
d="M121 1034h287v-710q0 -82 23.5 -121t72.5 -39q53 0 81.5 44.5t28.5 119.5v706h289v-821q0 -69 4 -213h-280l-4 111q-44 -67 -103 -98t-143 -31q-125 0 -190.5 72t-65.5 198v782zM520 1479h277l-328 -293h-133z" />
    <glyph glyph-name="ucircumflex" unicode="&#xfb;" 
d="M121 1034h287v-710q0 -82 23.5 -121t72.5 -39q53 0 81.5 44.5t28.5 119.5v706h289v-821q0 -69 4 -213h-280l-4 111q-44 -67 -103 -98t-143 -31q-125 0 -190.5 72t-65.5 198v782zM395 1479h228l221 -293h-191l-143 182l-145 -182h-187z" />
    <glyph glyph-name="udieresis" unicode="&#xfc;" 
d="M121 1034h287v-710q0 -82 23.5 -121t72.5 -39q53 0 81.5 44.5t28.5 119.5v706h289v-821q0 -69 4 -213h-280l-4 111q-44 -67 -103 -98t-143 -31q-125 0 -190.5 72t-65.5 198v782zM217 1430h227v-222h-227v222zM580 1430h227v-222h-227v222z" />
    <glyph glyph-name="yacute" unicode="&#xfd;" horiz-adv-x="909" 
d="M18 1034h287l150 -727l157 727h279l-399 -1427h-304l111 383zM463 1479h276l-327 -293h-133z" />
    <glyph glyph-name="thorn" unicode="&#xfe;" 
d="M115 1479h288v-559h5q52 135 229 135q57 0 102.5 -17t75.5 -43t51.5 -69t33 -82.5t17.5 -96.5t7.5 -98.5t1.5 -99.5v-62q0 -46 -0.5 -73.5t-3 -75t-7.5 -77.5t-14.5 -71.5t-23.5 -68t-35.5 -56t-49 -46.5t-65.5 -28t-84 -11q-80 0 -136 27t-99 91h-5v-542h-288v1923z
M403 578v-76q0 -188 24.5 -266t90.5 -78q73 0 99 75t26 273v78q0 76 -4 123t-16 89.5t-37.5 61.5t-65.5 19q-26 0 -45.5 -8.5t-32 -28t-20.5 -42.5t-12 -60t-5.5 -72.5t-1.5 -87.5z" />
    <glyph glyph-name="ydieresis" unicode="&#xff;" horiz-adv-x="909" 
d="M18 1034h287l150 -727l157 727h279l-399 -1427h-304l111 383zM160 1430h227v-222h-227v222zM522 1430h228v-222h-228v222z" />
    <glyph glyph-name="Amacron" unicode="&#x100;" horiz-adv-x="1251" 
d="M426 1479h408l401 -1479h-326l-82 328h-421l-84 -328h-306zM610 1194l-145 -643h299zM315 1831h592v-148h-592v148z" />
    <glyph glyph-name="amacron" unicode="&#x101;" 
d="M897 725v-498q0 -112 16 -227h-268l-14 137q-92 -155 -266 -155q-134 0 -206.5 84t-72.5 237q0 129 45 203q46 76 138 110.5t272 34.5h75v117q0 66 -26 97.5t-90 31.5q-61 0 -89 -37.5t-28 -124.5h-272v15q0 161 100.5 233t298.5 72q204 0 295.5 -80t91.5 -250zM475 156
q75 0 112.5 63t37.5 199v82h-23q-158 0 -205 -54q-28 -32 -28 -120q0 -36 3 -60.5t12.5 -52.5t32 -42.5t58.5 -14.5zM213 1386h592v-147h-592v147z" />
    <glyph glyph-name="Abreve" unicode="&#x102;" horiz-adv-x="1251" 
d="M426 1479h408l401 -1479h-326l-82 328h-421l-84 -328h-306zM610 1194l-145 -643h299zM283 1923h116q28 -151 219 -151q172 0 207 151h117q-13 -141 -104 -220t-236 -79q-141 0 -225.5 78.5t-93.5 220.5z" />
    <glyph glyph-name="abreve" unicode="&#x103;" 
d="M897 725v-498q0 -112 16 -227h-268l-14 137q-92 -155 -266 -155q-134 0 -206.5 84t-72.5 237q0 129 45 203q46 76 138 110.5t272 34.5h75v117q0 66 -26 97.5t-90 31.5q-61 0 -89 -37.5t-28 -124.5h-272v15q0 161 100.5 233t298.5 72q204 0 295.5 -80t91.5 -250zM475 156
q75 0 112.5 63t37.5 199v82h-23q-158 0 -205 -54q-28 -32 -28 -120q0 -36 3 -60.5t12.5 -52.5t32 -42.5t58.5 -14.5zM180 1479h117q28 -152 219 -152q172 0 207 152h117q-13 -141 -104 -220t-236 -79q-142 0 -226.5 78.5t-93.5 220.5z" />
    <glyph glyph-name="Aogonek" unicode="&#x104;" horiz-adv-x="1251" 
d="M426 1479h408l401 -1479h-90q-76 -37 -120 -80.5t-44 -87.5q0 -74 92 -74q57 0 162 33v-102q-68 -31 -115.5 -42.5t-105.5 -11.5q-217 0 -217 154q0 68 50.5 127t117.5 84h-56l-82 328h-421l-84 -328h-306zM610 1194l-145 -643h299z" />
    <glyph glyph-name="aogonek" unicode="&#x105;" 
d="M897 725v-498q0 -112 16 -227h-86q-78 -37 -120.5 -81t-42.5 -87q0 -74 92 -74q51 0 162 33v-102q-67 -30 -115.5 -42t-106.5 -12q-217 0 -217 154q0 67 49 127t117 84l-14 137q-92 -155 -266 -155q-134 0 -206.5 84t-72.5 237q0 129 45 203q46 76 138 110.5t272 34.5h75
v117q0 66 -26 97.5t-90 31.5q-61 0 -89 -37.5t-28 -124.5h-272v15q0 161 100.5 233t298.5 72q204 0 295.5 -80t91.5 -250zM475 156q75 0 112.5 63t37.5 199v82h-23q-161 0 -205 -54q-28 -32 -28 -120q0 -36 3 -60.5t12.5 -52.5t32 -42.5t58.5 -14.5z" />
    <glyph glyph-name="Cacute" unicode="&#x106;" horiz-adv-x="1138" 
d="M1051 1057v-45h-303v28q0 236 -148 236q-36 0 -63.5 -14t-46.5 -36.5t-32 -63.5t-20.5 -81.5t-11.5 -105t-5 -119.5t-1 -139v-80t1 -75.5t3.5 -74t7 -65t11.5 -61.5t16.5 -51t23 -44.5t30.5 -30.5t39.5 -21.5t49.5 -6.5q160 0 160 274v17h305v-43q0 -233 -112 -352
t-349 -119q-77 0 -140 12.5t-111 33.5t-85 56.5t-62.5 72.5t-43.5 92t-28.5 103.5t-16 118.5t-7 127t-1.5 137q0 84 1 137t6 127t15 120.5t27.5 105t43.5 94.5t64.5 74t88 58.5t116.5 34t148 13.5q215 0 322.5 -109t107.5 -335zM657 1923h277l-328 -293h-133z" />
    <glyph glyph-name="cacute" unicode="&#x107;" 
d="M920 696v-30h-277q-1 43 -2.5 67.5t-8 54t-19 44.5t-35 25.5t-54.5 10.5q-81 0 -110 -63t-29 -211v-148q0 -153 26.5 -215.5t104.5 -62.5q68 0 99.5 47.5t31.5 144.5v21h279v-25q0 -370 -422 -370q-219 0 -322 127q-86 106 -86 305v84q0 254 43 356q28 67 90.5 112
t134 63t152.5 18q404 0 404 -355zM524 1479h277l-328 -293h-133z" />
    <glyph glyph-name="Ccircumflex" unicode="&#x108;" horiz-adv-x="1138" 
d="M1051 1057v-45h-303v28q0 236 -148 236q-36 0 -63.5 -14t-46.5 -36.5t-32 -63.5t-20.5 -81.5t-11.5 -105t-5 -119.5t-1 -139v-80t1 -75.5t3.5 -74t7 -65t11.5 -61.5t16.5 -51t23 -44.5t30.5 -30.5t39.5 -21.5t49.5 -6.5q160 0 160 274v17h305v-43q0 -233 -112 -352
t-349 -119q-77 0 -140 12.5t-111 33.5t-85 56.5t-62.5 72.5t-43.5 92t-28.5 103.5t-16 118.5t-7 127t-1.5 137q0 84 1 137t6 127t15 120.5t27.5 105t43.5 94.5t64.5 74t88 58.5t116.5 34t148 13.5q215 0 322.5 -109t107.5 -335zM496 1923h227l221 -293h-190l-144 182
l-145 -182h-186z" />
    <glyph glyph-name="ccircumflex" unicode="&#x109;" 
d="M920 696v-30h-277q-1 43 -2.5 67.5t-8 54t-19 44.5t-35 25.5t-54.5 10.5q-81 0 -110 -63t-29 -211v-148q0 -153 26.5 -215.5t104.5 -62.5q68 0 99.5 47.5t31.5 144.5v21h279v-25q0 -370 -422 -370q-219 0 -322 127q-86 106 -86 305v84q0 254 43 356q28 67 90.5 112
t134 63t152.5 18q404 0 404 -355zM393 1479h228l221 -293h-191l-143 182l-146 -182h-186z" />
    <glyph glyph-name="Cdotaccent" unicode="&#x10a;" horiz-adv-x="1138" 
d="M1051 1057v-45h-303v28q0 236 -148 236q-36 0 -63.5 -14t-46.5 -36.5t-32 -63.5t-20.5 -81.5t-11.5 -105t-5 -119.5t-1 -139v-80t1 -75.5t3.5 -74t7 -65t11.5 -61.5t16.5 -51t23 -44.5t30.5 -30.5t39.5 -21.5t49.5 -6.5q160 0 160 274v17h305v-43q0 -233 -112 -352
t-349 -119q-77 0 -140 12.5t-111 33.5t-85 56.5t-62.5 72.5t-43.5 92t-28.5 103.5t-16 118.5t-7 127t-1.5 137q0 84 1 137t6 127t15 120.5t27.5 105t43.5 94.5t64.5 74t88 58.5t116.5 34t148 13.5q215 0 322.5 -109t107.5 -335zM498 1874h227v-221h-227v221z" />
    <glyph glyph-name="cdotaccent" unicode="&#x10b;" 
d="M920 696v-30h-277q-1 43 -2.5 67.5t-8 54t-19 44.5t-35 25.5t-54.5 10.5q-81 0 -110 -63t-29 -211v-148q0 -153 26.5 -215.5t104.5 -62.5q68 0 99.5 47.5t31.5 144.5v21h279v-25q0 -370 -422 -370q-219 0 -322 127q-86 106 -86 305v84q0 254 43 356q28 67 90.5 112
t134 63t152.5 18q404 0 404 -355zM395 1430h228v-222h-228v222z" />
    <glyph glyph-name="Ccaron" unicode="&#x10c;" horiz-adv-x="1138" 
d="M1051 1057v-45h-303v28q0 236 -148 236q-36 0 -63.5 -14t-46.5 -36.5t-32 -63.5t-20.5 -81.5t-11.5 -105t-5 -119.5t-1 -139v-80t1 -75.5t3.5 -74t7 -65t11.5 -61.5t16.5 -51t23 -44.5t30.5 -30.5t39.5 -21.5t49.5 -6.5q160 0 160 274v17h305v-43q0 -233 -112 -352
t-349 -119q-77 0 -140 12.5t-111 33.5t-85 56.5t-62.5 72.5t-43.5 92t-28.5 103.5t-16 118.5t-7 127t-1.5 137q0 84 1 137t6 127t15 120.5t27.5 105t43.5 94.5t64.5 74t88 58.5t116.5 34t148 13.5q215 0 322.5 -109t107.5 -335zM279 1923h186l145 -182l144 182h190
l-221 -293h-227z" />
    <glyph glyph-name="ccaron" unicode="&#x10d;" 
d="M920 696v-30h-277q-1 43 -2.5 67.5t-8 54t-19 44.5t-35 25.5t-54.5 10.5q-81 0 -110 -63t-29 -211v-148q0 -153 26.5 -215.5t104.5 -62.5q68 0 99.5 47.5t31.5 144.5v21h279v-25q0 -370 -422 -370q-219 0 -322 127q-86 106 -86 305v84q0 254 43 356q28 67 90.5 112
t134 63t152.5 18q404 0 404 -355zM176 1479h186l146 -183l143 183h191l-221 -293h-228z" />
    <glyph glyph-name="Dcaron" unicode="&#x10e;" horiz-adv-x="1251" 
d="M135 1479h475q104 0 184 -20t135 -51t93.5 -87.5t60 -112t33 -142t14.5 -159.5t3 -182q0 -81 -2.5 -142.5t-9.5 -128.5t-19 -116t-32.5 -98.5t-49.5 -84.5t-69.5 -66t-92.5 -49.5t-119 -29t-149 -10.5h-455v1479zM451 1251v-1020h75q116 0 170 25q71 35 99 138.5
t28 322.5q0 327 -49 436q-26 57 -81 77.5t-156 20.5h-86zM217 1923h186l146 -182l143 182h191l-221 -293h-228z" />
    <glyph glyph-name="dcaron" unicode="&#x10f;" 
d="M618 1479h289v-1479h-272l-2 115q-78 -133 -238 -133q-85 0 -144.5 32.5t-92.5 96t-47.5 146t-14.5 194.5v149q0 226 65.5 339.5t227.5 113.5q146 0 229 -117v543zM631 481v80q0 61 -2 101.5t-9.5 85.5t-21 71t-37.5 43t-59 17q-71 0 -97 -71t-26 -220v-127
q0 -168 30.5 -237.5t96.5 -69.5q68 0 96.5 74t28.5 253zM1063 1479h252l-180 -293h-136z" />
    <glyph glyph-name="Dcroat" unicode="&#x110;" horiz-adv-x="1251" 
d="M135 1479h475q104 0 184 -20t135 -51t93.5 -87.5t60 -112t33 -142t14.5 -159.5t3 -182q0 -83 -2.5 -145.5t-9.5 -129.5t-20 -116.5t-33.5 -98.5t-50 -83.5t-70 -65t-93 -48.5t-119.5 -28t-149 -10h-451v666h-119v213h119v600zM451 1251v-372h204v-213h-204v-435h90
q88 0 132 14.5t77 53.5q45 53 59 154.5t14 263.5q0 184 -12.5 284t-40.5 158q-26 54 -79.5 73t-149.5 19h-90z" />
    <glyph glyph-name="dcroat" unicode="&#x111;" 
d="M618 1479h289v-164h156v-176h-156v-1139h-272l-2 115q-78 -133 -238 -133q-85 0 -144.5 32.5t-92.5 96t-47.5 146t-14.5 194.5v149q0 226 65.5 339.5t227.5 113.5q146 0 229 -117v203h-286v176h286v164zM631 481v80q0 61 -2 101.5t-9.5 85.5t-21 71t-37.5 43t-59 17
q-71 0 -97 -71t-26 -220v-127q0 -168 30.5 -237.5t96.5 -69.5q68 0 96.5 74t28.5 253z" />
    <glyph glyph-name="Emacron" unicode="&#x112;" 
d="M129 1479h807v-228h-498v-364h459v-228h-459v-428h514v-231h-823v1479zM213 1831h592v-148h-592v148z" />
    <glyph glyph-name="emacron" unicode="&#x113;" 
d="M932 471h-547v-102q0 -109 31 -158t98 -49q119 0 119 166v20h293q-9 -187 -114 -277.5t-310 -90.5q-148 0 -238 47q-56 29 -92 77.5t-52.5 118.5t-22 135.5t-5.5 161.5q0 76 3.5 131.5t14 115t29 100.5t50.5 79.5t77 61t108.5 36t145.5 13.5q190 0 289 -86
q125 -108 125 -389v-54zM385 631h250v67q0 176 -123 176q-71 0 -99 -53.5t-28 -158.5v-31zM213 1386h592v-147h-592v147z" />
    <glyph glyph-name="Ebreve" unicode="&#x114;" 
d="M129 1479h807v-228h-498v-364h459v-228h-459v-428h514v-231h-823v1479zM180 1923h117q28 -151 219 -151q172 0 207 151h117q-13 -141 -104 -220t-236 -79q-142 0 -226.5 78.5t-93.5 220.5z" />
    <glyph glyph-name="ebreve" unicode="&#x115;" 
d="M932 471h-547v-102q0 -109 31 -158t98 -49q119 0 119 166v20h293q-9 -187 -114 -277.5t-310 -90.5q-148 0 -238 47q-56 29 -92 77.5t-52.5 118.5t-22 135.5t-5.5 161.5q0 76 3.5 131.5t14 115t29 100.5t50.5 79.5t77 61t108.5 36t145.5 13.5q190 0 289 -86
q125 -108 125 -389v-54zM385 631h250v67q0 176 -123 176q-71 0 -99 -53.5t-28 -158.5v-31zM180 1479h117q28 -152 219 -152q172 0 207 152h117q-13 -141 -104 -220t-236 -79q-142 0 -226.5 78.5t-93.5 220.5z" />
    <glyph glyph-name="Edotaccent" unicode="&#x116;" 
d="M129 1479h807v-228h-498v-364h459v-228h-459v-428h514v-231h-823v1479zM395 1874h228v-221h-228v221z" />
    <glyph glyph-name="edotaccent" unicode="&#x117;" 
d="M932 471h-547v-102q0 -109 31 -158t98 -49q119 0 119 166v20h293q-9 -187 -114 -277.5t-310 -90.5q-148 0 -238 47q-56 29 -92 77.5t-52.5 118.5t-22 135.5t-5.5 161.5q0 76 3.5 131.5t14 115t29 100.5t50.5 79.5t77 61t108.5 36t145.5 13.5q190 0 289 -86
q125 -108 125 -389v-54zM385 631h250v67q0 176 -123 176q-71 0 -99 -53.5t-28 -158.5v-31zM395 1430h228v-222h-228v222z" />
    <glyph glyph-name="Eogonek" unicode="&#x118;" 
d="M129 1479h807v-228h-498v-364h459v-228h-459v-428h514v-231h-90q-75 -36 -119.5 -80.5t-44.5 -87.5q0 -74 93 -74q60 0 161 33v-102q-68 -31 -115.5 -42.5t-105.5 -11.5q-217 0 -217 154q0 68 50.5 127t117.5 84h-553v1479z" />
    <glyph glyph-name="eogonek" unicode="&#x119;" 
d="M633 348h293q-15 -283 -252 -348q-76 -37 -120 -80.5t-44 -87.5q0 -74 92 -74q57 0 162 33v-102q-116 -54 -221 -54q-217 0 -217 154q0 57 35 108.5t92 84.5q-189 12 -267 106q-53 62 -73.5 159.5t-20.5 272.5q0 76 3.5 131.5t14 115t29 100.5t50.5 79.5t77 61t108.5 36
t145.5 13.5q119 0 200.5 -32t128 -97.5t66 -153.5t19.5 -211l-2 -92h-547v-102q0 -109 31 -158t98 -49q119 0 119 166v20zM385 631h250v67q0 176 -123 176q-71 0 -99 -53.5t-28 -158.5v-31z" />
    <glyph glyph-name="Ecaron" unicode="&#x11a;" 
d="M129 1479h807v-228h-498v-364h459v-228h-459v-428h514v-231h-823v1479zM176 1923h186l146 -182l143 182h191l-221 -293h-228z" />
    <glyph glyph-name="ecaron" unicode="&#x11b;" 
d="M932 471h-547v-102q0 -109 31 -158t98 -49q119 0 119 166v20h293q-9 -187 -114 -277.5t-310 -90.5q-148 0 -238 47q-56 29 -92 77.5t-52.5 118.5t-22 135.5t-5.5 161.5q0 76 3.5 131.5t14 115t29 100.5t50.5 79.5t77 61t108.5 36t145.5 13.5q190 0 289 -86
q125 -108 125 -389v-54zM385 631h250v67q0 176 -123 176q-71 0 -99 -53.5t-28 -158.5v-31zM176 1479h186l146 -183l143 183h191l-221 -293h-228z" />
    <glyph glyph-name="Gcircumflex" unicode="&#x11c;" horiz-adv-x="1251" 
d="M1114 1071v-37h-307v72q0 86 -47.5 138t-128.5 52q-49 0 -84.5 -16.5t-57.5 -57.5t-35 -79.5t-18.5 -112.5t-6.5 -124.5t-1 -147.5v-100.5t1.5 -89.5t4.5 -84t8.5 -70.5t14 -64.5t20.5 -50.5t28.5 -43.5t38 -28.5t49 -20t60.5 -5.5q77 0 156 28v326h-170v229h475v-749
q-278 -53 -428 -53q-416 0 -512 256q-35 93 -47 219.5t-12 310.5q0 72 2 126t8 120.5t17 116.5t30.5 104.5t46.5 94t66.5 76.5t89 60t116 36.5t146.5 13.5q230 0 353.5 -115.5t123.5 -329.5zM504 1923h227l221 -293h-190l-144 182l-145 -182h-186z" />
    <glyph glyph-name="gcircumflex" unicode="&#x11d;" 
d="M631 913v121h274v-1022q0 -221 -95.5 -315t-317.5 -94q-380 0 -386 305h285v-10q0 -65 28 -100.5t83 -35.5q63 0 89.5 40t26.5 135v198q-79 -121 -235 -121q-73 0 -125.5 23t-84.5 61t-51 99t-25.5 126.5t-6.5 153.5v94q0 94 7 163t27 132t53.5 102t88.5 62t131 23
q167 0 234 -140zM631 510q0 212 -28.5 290.5t-100.5 78.5q-74 0 -100.5 -72.5t-26.5 -241.5v-86q0 -155 24.5 -224t96.5 -69q42 0 69.5 22t41.5 68t19 100t5 134zM434 1479h228l221 -293h-191l-143 182l-146 -182h-186z" />
    <glyph glyph-name="Gbreve" unicode="&#x11e;" horiz-adv-x="1251" 
d="M1114 1071v-37h-307v72q0 86 -47.5 138t-128.5 52q-49 0 -84.5 -16.5t-57.5 -57.5t-35 -79.5t-18.5 -112.5t-6.5 -124.5t-1 -147.5v-100.5t1.5 -89.5t4.5 -84t8.5 -70.5t14 -64.5t20.5 -50.5t28.5 -43.5t38 -28.5t49 -20t60.5 -5.5q77 0 156 28v326h-170v229h475v-749
q-278 -53 -428 -53q-416 0 -512 256q-35 93 -47 219.5t-12 310.5q0 72 2 126t8 120.5t17 116.5t30.5 104.5t46.5 94t66.5 76.5t89 60t116 36.5t146.5 13.5q230 0 353.5 -115.5t123.5 -329.5zM291 1923h117q28 -151 219 -151q172 0 207 151h116q-13 -141 -104 -220t-236 -79
q-141 0 -225.5 78.5t-93.5 220.5z" />
    <glyph glyph-name="gbreve" unicode="&#x11f;" 
d="M631 913v121h274v-1022q0 -221 -95.5 -315t-317.5 -94q-380 0 -386 305h285v-10q0 -65 28 -100.5t83 -35.5q63 0 89.5 40t26.5 135v198q-79 -121 -235 -121q-73 0 -125.5 23t-84.5 61t-51 99t-25.5 126.5t-6.5 153.5v94q0 94 7 163t27 132t53.5 102t88.5 62t131 23
q167 0 234 -140zM631 510q0 212 -28.5 290.5t-100.5 78.5q-74 0 -100.5 -72.5t-26.5 -241.5v-86q0 -155 24.5 -224t96.5 -69q42 0 69.5 22t41.5 68t19 100t5 134zM221 1479h117q28 -152 219 -152q172 0 207 152h117q-13 -141 -104 -220t-236 -79q-142 0 -226.5 78.5
t-93.5 220.5z" />
    <glyph glyph-name="Gdotaccent" unicode="&#x120;" horiz-adv-x="1251" 
d="M1114 1071v-37h-307v72q0 86 -47.5 138t-128.5 52q-49 0 -84.5 -16.5t-57.5 -57.5t-35 -79.5t-18.5 -112.5t-6.5 -124.5t-1 -147.5v-100.5t1.5 -89.5t4.5 -84t8.5 -70.5t14 -64.5t20.5 -50.5t28.5 -43.5t38 -28.5t49 -20t60.5 -5.5q77 0 156 28v326h-170v229h475v-749
q-278 -53 -428 -53q-416 0 -512 256q-35 93 -47 219.5t-12 310.5q0 72 2 126t8 120.5t17 116.5t30.5 104.5t46.5 94t66.5 76.5t89 60t116 36.5t146.5 13.5q230 0 353.5 -115.5t123.5 -329.5zM506 1874h227v-221h-227v221z" />
    <glyph glyph-name="gdotaccent" unicode="&#x121;" 
d="M631 913v121h274v-1022q0 -221 -95.5 -315t-317.5 -94q-380 0 -386 305h285v-10q0 -65 28 -100.5t83 -35.5q63 0 89.5 40t26.5 135v198q-79 -121 -235 -121q-73 0 -125.5 23t-84.5 61t-51 99t-25.5 126.5t-6.5 153.5v94q0 94 7 163t27 132t53.5 102t88.5 62t131 23
q167 0 234 -140zM631 510q0 212 -28.5 290.5t-100.5 78.5q-74 0 -100.5 -72.5t-26.5 -241.5v-86q0 -155 24.5 -224t96.5 -69q42 0 69.5 22t41.5 68t19 100t5 134zM436 1430h228v-222h-228v222z" />
    <glyph glyph-name="Gcommaaccent" unicode="&#x122;" horiz-adv-x="1251" 
d="M1114 1071v-37h-307v72q0 86 -47.5 138t-128.5 52q-49 0 -84.5 -16.5t-57.5 -57.5t-35 -79.5t-18.5 -112.5t-6.5 -124.5t-1 -147.5v-100.5t1.5 -89.5t4.5 -84t8.5 -70.5t14 -64.5t20.5 -50.5t28.5 -43.5t38 -28.5t49 -20t60.5 -5.5q77 0 156 28v326h-170v229h475v-749
q-278 -53 -428 -53q-416 0 -512 256q-35 93 -47 219.5t-12 310.5q0 72 2 126t8 120.5t17 116.5t30.5 104.5t46.5 94t66.5 76.5t89 60t116 36.5t146.5 13.5q230 0 353.5 -115.5t123.5 -329.5zM535 -102h262l-242 -293h-135z" />
    <glyph glyph-name="gcommaaccent" unicode="&#x123;" 
d="M631 913v121h274v-1022q0 -221 -95.5 -315t-317.5 -94q-380 0 -386 305h285v-10q0 -65 28 -100.5t83 -35.5q63 0 89.5 40t26.5 135v198q-79 -121 -235 -121q-73 0 -125.5 23t-84.5 61t-51 99t-25.5 126.5t-6.5 153.5v94q0 94 7 163t27 132t53.5 102t88.5 62t131 23
q167 0 234 -140zM631 510q0 212 -28.5 290.5t-100.5 78.5q-74 0 -100.5 -72.5t-26.5 -241.5v-86q0 -155 24.5 -224t96.5 -69q42 0 69.5 22t41.5 68t19 100t5 134zM610 1479h135l-114 -293h-262z" />
    <glyph glyph-name="Hcircumflex" unicode="&#x124;" horiz-adv-x="1251" 
d="M139 1479h312v-586h350v586h311v-1479h-311v651h-350v-651h-312v1479zM512 1923h227l222 -293h-191l-143 182l-146 -182h-186z" />
    <glyph glyph-name="hcircumflex" unicode="&#x125;" 
d="M115 1479h288v-549q82 125 240 125q266 0 266 -273v-782h-288v727q0 80 -25 113.5t-78 33.5q-56 0 -85.5 -41t-29.5 -110v-723h-288v1479zM332 1849h227l221 -293h-190l-144 183l-145 -183h-186z" />
    <glyph glyph-name="Hbar" unicode="&#x126;" horiz-adv-x="1251" 
d="M139 1479h312v-197h350v197h311v-1479h-311v651h-350v-651h-312v1479zM451 893h350v188h-350v-188z" />
    <glyph glyph-name="hbar" unicode="&#x127;" 
d="M115 1479h288v-164h287v-176h-287v-209q82 125 240 125q132 0 199 -68.5t67 -200.5v-786h-288v729q0 79 -25.5 112t-77.5 33q-56 0 -85.5 -41t-29.5 -110v-723h-288v1139h-156v176h156v164z" />
    <glyph glyph-name="Itilde" unicode="&#x128;" horiz-adv-x="569" 
d="M129 1479h309v-1479h-309v1479zM518 1892h125q-18 -117 -80.5 -187.5t-132.5 -70.5q-56 0 -109.5 22.5t-103 45t-96.5 22.5q-62 0 -80 -90h-121q16 110 74 184t139 74q43 0 100.5 -24.5t109.5 -49t81 -24.5q84 0 94 98z" />
    <glyph glyph-name="itilde" unicode="&#x129;" horiz-adv-x="569" 
d="M139 1034h289v-1034h-289v1034zM518 1448h125q-18 -117 -80.5 -187.5t-132.5 -70.5q-56 0 -109.5 22.5t-103 45t-96.5 22.5q-62 0 -80 -90h-121q16 110 74 184t139 74q42 0 100 -24.5t110 -49t81 -24.5q84 0 94 98z" />
    <glyph glyph-name="Imacron" unicode="&#x12a;" horiz-adv-x="569" 
d="M129 1479h309v-1479h-309v1479zM-12 1831h592v-148h-592v148z" />
    <glyph glyph-name="imacron" unicode="&#x12b;" horiz-adv-x="569" 
d="M139 1034h289v-1034h-289v1034zM-12 1386h592v-147h-592v147z" />
    <glyph glyph-name="Ibreve" unicode="&#x12c;" horiz-adv-x="569" 
d="M129 1479h309v-1479h-309v1479zM-45 1923h117q28 -151 219 -151q172 0 207 151h116q-13 -141 -104 -220t-236 -79q-141 0 -225.5 78.5t-93.5 220.5z" />
    <glyph glyph-name="ibreve" unicode="&#x12d;" horiz-adv-x="569" 
d="M139 1034h289v-1034h-289v1034zM-45 1479h117q28 -152 219 -152q172 0 207 152h116q-13 -141 -104 -220t-236 -79q-141 0 -225.5 78.5t-93.5 220.5z" />
    <glyph glyph-name="Iogonek" unicode="&#x12e;" horiz-adv-x="569" 
d="M129 1479h309v-1479h-49q-76 -37 -120 -80.5t-44 -87.5q0 -74 92 -74q57 0 162 33v-102q-116 -54 -221 -54q-217 0 -217 154q0 68 50.5 127t117.5 84h-80v1479z" />
    <glyph glyph-name="iogonek" unicode="&#x12f;" horiz-adv-x="569" 
d="M139 1479h289v-234h-289v234zM139 1034h289v-1034h-39q-76 -37 -120 -80.5t-44 -87.5q0 -74 92 -74q57 0 162 33v-102q-116 -54 -221 -54q-217 0 -217 156q0 64 49.5 124t118.5 85h-70v1034z" />
    <glyph glyph-name="Idotaccent" unicode="&#x130;" horiz-adv-x="569" 
d="M129 1479h309v-1479h-309v1479zM170 1874h227v-221h-227v221z" />
    <glyph glyph-name="dotlessi" unicode="&#x131;" horiz-adv-x="569" 
d="M139 1034h289v-1034h-289v1034z" />
    <glyph glyph-name="Jcircumflex" unicode="&#x134;" 
d="M600 1479h309v-1149q0 -164 -120.5 -257t-335.5 -93q-217 0 -319.5 95t-102.5 296v121h315v-117q0 -178 119 -178q73 0 104 43.5t31 146.5v1092zM639 1923h227l221 -293h-190l-143 182l-146 -182h-186z" />
    <glyph glyph-name="jcircumflex" unicode="&#x135;" horiz-adv-x="569" 
d="M139 1034h289v-1128q0 -151 -63.5 -224t-204.5 -73q-50 0 -97 6v182q41 0 58.5 19.5t17.5 64.5v1153zM168 1479h227l221 -293h-190l-143 182l-146 -182h-186z" />
    <glyph glyph-name="Kcommaaccent" unicode="&#x136;" horiz-adv-x="1138" 
d="M111 1479h311v-623l364 623h340l-413 -664l413 -815h-348l-356 748v-748h-311v1479zM477 -102h262l-241 -293h-136z" />
    <glyph glyph-name="kcommaaccent" unicode="&#x137;" 
d="M111 1479h290v-871l263 426h301l-293 -461l325 -573h-325l-271 553v-553h-290v1479zM408 -102h262l-242 -293h-135z" />
    <glyph glyph-name="kgreenlandic" unicode="&#x138;" 
d="M109 1034h288v-483l265 483h301l-293 -489l325 -545h-325l-273 530v-530h-288v1034z" />
    <glyph glyph-name="Lacute" unicode="&#x139;" horiz-adv-x="909" 
d="M129 1479h313v-1233h459v-246h-772v1479zM377 1923h276l-327 -293h-133z" />
    <glyph glyph-name="lacute" unicode="&#x13a;" horiz-adv-x="569" 
d="M139 1479h289v-1479h-289v1479zM324 1923h276l-328 -293h-133z" />
    <glyph glyph-name="Lcommaaccent" unicode="&#x13b;" horiz-adv-x="909" 
d="M129 1479h313v-1233h459v-246h-772v1479zM373 -102h262l-242 -293h-135z" />
    <glyph glyph-name="lcommaaccent" unicode="&#x13c;" horiz-adv-x="569" 
d="M139 1479h289v-1479h-289v1479zM184 -102h262l-241 -293h-135z" />
    <glyph glyph-name="Lcaron" unicode="&#x13d;" horiz-adv-x="909" 
d="M129 1479h313v-1233h459v-246h-772v1479zM625 1479h252l-181 -293h-135z" />
    <glyph glyph-name="lcaron" unicode="&#x13e;" horiz-adv-x="569" 
d="M139 1479h289v-1479h-289v1479zM592 1479h252l-180 -293h-136z" />
    <glyph glyph-name="Ldot" unicode="&#x13f;" horiz-adv-x="909" 
d="M129 1479h313v-1233h459v-246h-772v1479zM612 836h228v-222h-228v222z" />
    <glyph glyph-name="ldot" unicode="&#x140;" horiz-adv-x="796" 
d="M139 1479h289v-1479h-289v1479zM551 836h227v-222h-227v222z" />
    <glyph glyph-name="Lslash" unicode="&#x141;" horiz-adv-x="909" 
d="M129 1479h313v-500l236 137v-198l-236 -138v-534h459v-246h-772v600l-121 -70v199l121 70v680z" />
    <glyph glyph-name="lslash" unicode="&#x142;" horiz-adv-x="532" 
d="M121 1481h289v-551l145 88v-154l-145 -88v-776h-289v618l-144 -92v158l144 88v709z" />
    <glyph glyph-name="Nacute" unicode="&#x143;" horiz-adv-x="1366" 
d="M133 1479h416l395 -1024v1024h287v-1479h-406l-405 1081v-1081h-287v1479zM758 1923h276l-327 -293h-134z" />
    <glyph glyph-name="nacute" unicode="&#x144;" 
d="M909 799v-799h-288v709q0 28 -1 44.5t-6 42.5t-15.5 40.5t-31 26t-49.5 11.5q-57 0 -86 -42t-29 -109v-723h-288v1034h284l4 -104q82 125 240 125q125 0 195.5 -66t70.5 -190zM563 1479h277l-328 -293h-133z" />
    <glyph glyph-name="Ncommaaccent" unicode="&#x145;" horiz-adv-x="1366" 
d="M133 1479h416l395 -1024v1024h287v-1479h-406l-405 1081v-1081h-287v1479zM557 -102h262l-241 -293h-136z" />
    <glyph glyph-name="ncommaaccent" unicode="&#x146;" 
d="M909 799v-799h-288v709q0 28 -1 44.5t-6 42.5t-15.5 40.5t-31 26t-49.5 11.5q-57 0 -86 -42t-29 -109v-723h-288v1034h284l4 -104q82 125 240 125q125 0 195.5 -66t70.5 -190zM381 -102h262l-242 -293h-135z" />
    <glyph glyph-name="Ncaron" unicode="&#x147;" horiz-adv-x="1366" 
d="M133 1479h416l395 -1024v1024h287v-1479h-406l-405 1081v-1081h-287v1479zM360 1923h187l145 -182l144 182h190l-221 -293h-227z" />
    <glyph glyph-name="ncaron" unicode="&#x148;" 
d="M909 799v-799h-288v709q0 28 -1 44.5t-6 42.5t-15.5 40.5t-31 26t-49.5 11.5q-57 0 -86 -42t-29 -109v-723h-288v1034h284l4 -104q82 125 240 125q125 0 195.5 -66t70.5 -190zM176 1479h186l146 -183l143 183h191l-221 -293h-228z" />
    <glyph glyph-name="Eng" unicode="&#x14a;" horiz-adv-x="1366" 
d="M131 1479h418l393 -1024h4v1024h289v-1573q0 -151 -63.5 -224t-204.5 -73q-47 0 -97 6v182q42 0 59 20t17 64v119h-119l-403 1081h-4v-1081h-289v1479z" />
    <glyph glyph-name="eng" unicode="&#x14b;" 
d="M909 829v-921q0 -152 -62.5 -225.5t-205.5 -73.5q-47 0 -96 6v182q42 0 59 20t17 64v838q0 83 -26 120.5t-83 37.5t-83 -37.5t-26 -120.5v-719h-288v1034h288v-104h5q74 125 241 125q115 0 187.5 -63.5t72.5 -162.5z" />
    <glyph glyph-name="Omacron" unicode="&#x14c;" horiz-adv-x="1251" 
d="M1139 750q0 -89 -1 -144.5t-6.5 -131.5t-15 -123.5t-28 -106.5t-45 -94.5t-65.5 -73t-90 -57.5t-119 -33t-151 -13q-78 0 -142 13t-112.5 35t-86.5 59t-64 76t-45 96t-29.5 108.5t-16.5 123.5t-7.5 132t-1.5 142q0 79 2.5 140.5t9 129.5t18 119.5t31.5 104.5t47 91.5
t65 73t86.5 55.5t111.5 33.5t139 12.5q104 0 184 -20t134.5 -51t92 -89t58 -112.5t31.5 -145t13.5 -162.5t2.5 -188zM428 840v-125q0 -81 1.5 -138t6.5 -115.5t13.5 -97t23 -74t35 -55t49.5 -31t66 -11.5q29 0 53 4.5t43 17.5t33.5 26.5t25.5 40t18.5 49t12.5 64t8 74t4 89
t1.5 99.5t0.5 115v141q0 148 -21 232t-63 117.5t-114 33.5q-116 0 -156.5 -100.5t-40.5 -355.5zM332 1831h592v-148h-592v148z" />
    <glyph glyph-name="omacron" unicode="&#x14d;" 
d="M934 539q0 -116 -9 -196t-36 -155t-75.5 -119t-129 -70t-195.5 -26q-99 0 -171 26.5t-115.5 71.5t-69 116.5t-34.5 147.5t-9 179q0 73 3.5 129t14.5 115.5t29.5 102.5t50 82.5t74.5 64t104.5 39t139.5 14.5q106 0 182 -22t123.5 -61.5t75 -106t37.5 -144.5t10 -188z
M510 162q76 0 104.5 68.5t28.5 238.5v121q0 159 -24.5 224t-104.5 65q-36 0 -61.5 -15t-39.5 -38t-22 -62t-10 -75.5t-2 -90.5v-78q0 -148 11 -222t38.5 -105t81.5 -31zM213 1386h592v-147h-592v147z" />
    <glyph glyph-name="Obreve" unicode="&#x14e;" horiz-adv-x="1251" 
d="M1139 750q0 -89 -1 -144.5t-6.5 -131.5t-15 -123.5t-28 -106.5t-45 -94.5t-65.5 -73t-90 -57.5t-119 -33t-151 -13q-78 0 -142 13t-112.5 35t-86.5 59t-64 76t-45 96t-29.5 108.5t-16.5 123.5t-7.5 132t-1.5 142q0 79 2.5 140.5t9 129.5t18 119.5t31.5 104.5t47 91.5
t65 73t86.5 55.5t111.5 33.5t139 12.5q104 0 184 -20t134.5 -51t92 -89t58 -112.5t31.5 -145t13.5 -162.5t2.5 -188zM428 840v-125q0 -81 1.5 -138t6.5 -115.5t13.5 -97t23 -74t35 -55t49.5 -31t66 -11.5q29 0 53 4.5t43 17.5t33.5 26.5t25.5 40t18.5 49t12.5 64t8 74t4 89
t1.5 99.5t0.5 115v141q0 148 -21 232t-63 117.5t-114 33.5q-116 0 -156.5 -100.5t-40.5 -355.5zM299 1923h117q28 -151 219 -151q172 0 207 151h116q-13 -141 -104 -220t-236 -79q-141 0 -225.5 78.5t-93.5 220.5z" />
    <glyph glyph-name="obreve" unicode="&#x14f;" 
d="M934 539q0 -116 -9 -196t-36 -155t-75.5 -119t-129 -70t-195.5 -26q-99 0 -171 26.5t-115.5 71.5t-69 116.5t-34.5 147.5t-9 179q0 73 3.5 129t14.5 115.5t29.5 102.5t50 82.5t74.5 64t104.5 39t139.5 14.5q106 0 182 -22t123.5 -61.5t75 -106t37.5 -144.5t10 -188z
M510 162q76 0 104.5 68.5t28.5 238.5v121q0 159 -24.5 224t-104.5 65q-36 0 -61.5 -15t-39.5 -38t-22 -62t-10 -75.5t-2 -90.5v-78q0 -148 11 -222t38.5 -105t81.5 -31zM180 1479h117q28 -152 219 -152q172 0 207 152h117q-13 -141 -104 -220t-236 -79q-142 0 -226.5 78.5
t-93.5 220.5z" />
    <glyph glyph-name="Ohungarumlaut" unicode="&#x150;" horiz-adv-x="1251" 
d="M1139 750q0 -89 -1 -144.5t-6.5 -131.5t-15 -123.5t-28 -106.5t-45 -94.5t-65.5 -73t-90 -57.5t-119 -33t-151 -13q-78 0 -142 13t-112.5 35t-86.5 59t-64 76t-45 96t-29.5 108.5t-16.5 123.5t-7.5 132t-1.5 142q0 79 2.5 140.5t9 129.5t18 119.5t31.5 104.5t47 91.5
t65 73t86.5 55.5t111.5 33.5t139 12.5q104 0 184 -20t134.5 -51t92 -89t58 -112.5t31.5 -145t13.5 -162.5t2.5 -188zM428 840v-125q0 -81 1.5 -138t6.5 -115.5t13.5 -97t23 -74t35 -55t49.5 -31t66 -11.5q29 0 53 4.5t43 17.5t33.5 26.5t25.5 40t18.5 49t12.5 64t8 74t4 89
t1.5 99.5t0.5 115v141q0 148 -21 232t-63 117.5t-114 33.5q-116 0 -156.5 -100.5t-40.5 -355.5zM588 1923h276l-327 -293h-134zM930 1923h276l-327 -293h-134z" />
    <glyph glyph-name="ohungarumlaut" unicode="&#x151;" 
d="M934 539q0 -116 -9 -196t-36 -155t-75.5 -119t-129 -70t-195.5 -26q-99 0 -171 26.5t-115.5 71.5t-69 116.5t-34.5 147.5t-9 179q0 73 3.5 129t14.5 115.5t29.5 102.5t50 82.5t74.5 64t104.5 39t139.5 14.5q106 0 182 -22t123.5 -61.5t75 -106t37.5 -144.5t10 -188z
M510 162q76 0 104.5 68.5t28.5 238.5v121q0 159 -24.5 224t-104.5 65q-36 0 -61.5 -15t-39.5 -38t-22 -62t-10 -75.5t-2 -90.5v-78q0 -148 11 -222t38.5 -105t81.5 -31zM436 1479h277l-328 -293h-133zM778 1479h277l-328 -293h-133z" />
    <glyph glyph-name="OE" unicode="&#x152;" horiz-adv-x="1705" 
d="M637 1479h1003v-228h-497v-364h459v-228h-459v-432h514v-227h-1067q-112 0 -194 28t-136 78.5t-86.5 131.5t-45.5 176.5t-13 222.5v166q0 127 8 217.5t29.5 170t58.5 130.5t95 88.5t139.5 53.5t191.5 16zM854 227v1024h-178q-51 0 -85.5 -6.5t-65.5 -24.5t-49.5 -49.5
t-32.5 -83t-19.5 -123.5t-5.5 -173v-125q0 -173 21 -266.5t68.5 -133t135.5 -39.5h211z" />
    <glyph glyph-name="oe" unicode="&#x153;" horiz-adv-x="1593" 
d="M831 905q73 150 271 150q102 0 177 -24.5t122 -66.5t74.5 -109t38 -142t10.5 -176v-66h-555v-27q0 -149 33.5 -214.5t97.5 -65.5q123 0 123 184h293q-7 -180 -116 -274t-300 -94q-114 0 -188 39t-119 141q-37 -84 -116 -132t-167 -48q-79 0 -141.5 14.5t-106 39t-75 65
t-50 83.5t-29.5 103t-14.5 115.5t-3.5 129.5q0 71 4 126.5t15.5 111.5t31.5 97.5t52 79t76 60.5t105 36.5t138 13.5q238 0 319 -150zM969 633h264v31q0 104 -28 158.5t-105 54.5q-69 0 -100 -54.5t-31 -163.5v-26zM512 164q44 0 72.5 10.5t48.5 34t29.5 70.5t13.5 108t4 160
q0 62 -1 97t-6.5 78t-16 65.5t-29 44t-47 30t-68.5 8.5q-30 0 -52 -8t-36.5 -27.5t-23.5 -43t-13.5 -63.5t-6 -80t-1.5 -101q0 -161 11.5 -241t39 -111t82.5 -31z" />
    <glyph glyph-name="Racute" unicode="&#x154;" horiz-adv-x="1138" 
d="M123 1479h514q202 0 300.5 -96t98.5 -296q0 -158 -65.5 -246t-202.5 -114q69 -10 113.5 -27t78.5 -50t51 -85t21 -129l15 -254q7 -136 22 -182h-303q-19 43 -26 75t-7 87v227q0 131 -52 177t-187 46h-60v-612h-311v1479zM434 1251v-411h72q58 0 95.5 8t68 30t44 64.5
t13.5 108.5q0 65 -12.5 104.5t-43 60.5t-69 28t-102.5 7h-66zM596 1923h276l-327 -293h-133z" />
    <glyph glyph-name="racute" unicode="&#x155;" horiz-adv-x="681" 
d="M662 1051v-254q-23 2 -48 2q-113 0 -162 -55t-49 -183v-561h-288v1034h274v-133q39 80 101 115t157 35h15zM358 1479h277l-328 -293h-133z" />
    <glyph glyph-name="Rcommaaccent" unicode="&#x156;" horiz-adv-x="1138" 
d="M123 1479h514q202 0 300.5 -96t98.5 -296q0 -158 -65.5 -246t-202.5 -114q69 -10 113.5 -27t78.5 -50t51 -85t21 -129l15 -254q7 -136 22 -182h-303q-19 43 -26 75t-7 87v227q0 131 -52 177t-187 46h-60v-612h-311v1479zM434 1251v-411h72q58 0 95.5 8t68 30t44 64.5
t13.5 108.5q0 65 -12.5 104.5t-43 60.5t-69 28t-102.5 7h-66zM455 -102h262l-242 -293h-135z" />
    <glyph glyph-name="rcommaaccent" unicode="&#x157;" horiz-adv-x="681" 
d="M662 1051v-254q-23 2 -48 2q-113 0 -162 -55t-49 -183v-561h-288v1034h274v-133q39 80 101 115t157 35h15zM129 -102h262l-241 -293h-136z" />
    <glyph glyph-name="Rcaron" unicode="&#x158;" horiz-adv-x="1138" 
d="M123 1479h514q202 0 300.5 -96t98.5 -296q0 -158 -65.5 -246t-202.5 -114q69 -10 113.5 -27t78.5 -50t51 -85t21 -129l15 -254q7 -136 22 -182h-303q-19 43 -26 75t-7 87v227q0 131 -52 177t-187 46h-60v-612h-311v1479zM434 1251v-411h72q58 0 95.5 8t68 30t44 64.5
t13.5 108.5q0 65 -12.5 104.5t-43 60.5t-69 28t-102.5 7h-66zM207 1923h186l146 -182l143 182h190l-221 -293h-227z" />
    <glyph glyph-name="rcaron" unicode="&#x159;" horiz-adv-x="681" 
d="M662 1051v-254q-23 2 -48 2q-113 0 -162 -55t-49 -183v-561h-288v1034h274v-133q39 80 101 115t157 35h15zM-14 1479h186l145 -183l144 183h190l-221 -293h-227z" />
    <glyph glyph-name="Sacute" unicode="&#x15a;" horiz-adv-x="1138" 
d="M1030 1110v-51h-303v35q0 192 -149 192q-67 0 -108.5 -45t-41.5 -119q0 -99 94 -157l299 -191q132 -84 180 -166.5t48 -208.5q0 -214 -125.5 -320t-382.5 -106q-105 0 -185.5 22.5t-129.5 59.5t-80 89t-42.5 105.5t-11.5 115.5v92h314v-39q0 -114 38 -167.5t129 -53.5
q78 0 121 42.5t43 120.5q0 18 -3 34t-5.5 29t-11 26.5t-13 21.5t-17.5 20t-18 17t-22.5 16.5t-22 14.5t-25 15.5t-24.5 14.5l-184 113q-77 47 -124.5 86t-84.5 89t-53 111t-16 142q0 100 35.5 176t101.5 123t154.5 70.5t197.5 23.5q85 0 153 -15.5t112 -38.5t76 -59
t48.5 -68t25.5 -75.5t11 -71.5t2 -65zM623 1923h276l-328 -293h-133z" />
    <glyph glyph-name="sacute" unicode="&#x15b;" horiz-adv-x="909" 
d="M453 1055q177 0 280 -80q44 -35 65 -85.5t21 -133.5v-19h-274v19q0 72 -24.5 106.5t-78.5 34.5q-47 0 -73.5 -28t-26.5 -74q0 -36 17.5 -62.5t62.5 -48.5l186 -90q128 -62 185 -134t57 -167q0 -152 -106 -230.5t-312 -78.5q-185 0 -279 72.5t-94 226.5q0 22 2 49h281v-39
q0 -74 29 -107.5t86 -33.5q51 0 80.5 28.5t29.5 79.5q0 33 -9.5 57.5t-30 43t-36.5 28t-45 23.5l-174 84q-46 23 -77 42.5t-63 50.5t-48 72.5t-16 94.5q0 139 103.5 219t281.5 80zM498 1479h276l-328 -293h-133z" />
    <glyph glyph-name="Scircumflex" unicode="&#x15c;" horiz-adv-x="1138" 
d="M1030 1110v-51h-303v35q0 192 -149 192q-67 0 -108.5 -45t-41.5 -119q0 -99 94 -157l299 -191q132 -84 180 -166.5t48 -208.5q0 -214 -125.5 -320t-382.5 -106q-105 0 -185.5 22.5t-129.5 59.5t-80 89t-42.5 105.5t-11.5 115.5v92h314v-39q0 -114 38 -167.5t129 -53.5
q78 0 121 42.5t43 120.5q0 18 -3 34t-5.5 29t-11 26.5t-13 21.5t-17.5 20t-18 17t-22.5 16.5t-22 14.5t-25 15.5t-24.5 14.5l-184 113q-77 47 -124.5 86t-84.5 89t-53 111t-16 142q0 100 35.5 176t101.5 123t154.5 70.5t197.5 23.5q85 0 153 -15.5t112 -38.5t76 -59
t48.5 -68t25.5 -75.5t11 -71.5t2 -65zM467 1923h227l221 -293h-190l-143 182l-146 -182h-186z" />
    <glyph glyph-name="scircumflex" unicode="&#x15d;" horiz-adv-x="909" 
d="M453 1055q177 0 280 -80q44 -35 65 -85.5t21 -133.5v-19h-274v19q0 72 -24.5 106.5t-78.5 34.5q-47 0 -73.5 -28t-26.5 -74q0 -36 17.5 -62.5t62.5 -48.5l186 -90q128 -62 185 -134t57 -167q0 -152 -106 -230.5t-312 -78.5q-185 0 -279 72.5t-94 226.5q0 22 2 49h281v-39
q0 -74 29 -107.5t86 -33.5q51 0 80.5 28.5t29.5 79.5q0 33 -9.5 57.5t-30 43t-36.5 28t-45 23.5l-174 84q-46 23 -77 42.5t-63 50.5t-48 72.5t-16 94.5q0 139 103.5 219t281.5 80zM332 1479h227l221 -293h-190l-144 182l-145 -182h-186z" />
    <glyph glyph-name="Scedilla" unicode="&#x15e;" horiz-adv-x="1138" 
d="M1047 399q0 -206 -108 -306t-310 -113l-74 -99l4 -4q24 8 45 8q82 0 135.5 -41.5t53.5 -111.5q0 -93 -72 -144t-176 -51q-90 0 -211 53l39 82q84 -32 131 -32q61 0 94 22t33 62q0 34 -28 52.5t-75 18.5q-41 0 -73 -14l-45 39l116 155q-98 0 -174 21.5t-125 57.5t-80 88.5
t-44 110t-13 126.5q0 53 2 78h309v-39q0 -113 39 -167t131 -54q78 0 120 42.5t42 120.5q0 117 -164 213q-229 138 -268 166q-69 50 -127 133q-33 47 -48 101t-15 137q0 119 55 211q108 182 434 182q205 0 311 -86q39 -30 65 -73t36.5 -88t14 -73.5t3.5 -54.5q0 -28 -2 -69
h-301v20q0 54 -14 105q-28 98 -135 98q-70 0 -112 -41.5t-42 -118.5q0 -47 26.5 -90.5t102.5 -95.5q28 -19 114.5 -66t151.5 -88q228 -145 228 -383z" />
    <glyph glyph-name="scedilla" unicode="&#x15f;" horiz-adv-x="909" 
d="M59 283q0 22 2 49h281v-39q0 -74 29 -107.5t86 -33.5q51 0 80.5 28.5t29.5 79.5q0 33 -9.5 57.5t-30 43t-36.5 28t-45 23.5l-174 84q-46 23 -77 42.5t-63 50.5t-48 72.5t-16 94.5q0 139 103.5 219t281.5 80q177 0 280 -80q44 -35 65 -85.5t21 -133.5v-19h-274v19
q0 72 -24.5 106.5t-78.5 34.5q-47 0 -73.5 -28t-26.5 -74q0 -36 17.5 -62.5t62.5 -48.5l186 -90q128 -62 185 -134t57 -167q0 -268 -324 -305l-80 -107l5 -4q27 8 47 8q76 0 131 -40.5t55 -112.5q0 -67 -39 -112.5t-93 -64t-116 -18.5q-90 0 -211 53l39 82q84 -32 133 -32
q58 0 91.5 21.5t33.5 62.5q0 34 -27.5 52.5t-74.5 18.5q-42 0 -74 -14l-45 39l123 164q-181 2 -273 74t-92 225z" />
    <glyph glyph-name="Scaron" unicode="&#x160;" horiz-adv-x="1138" 
d="M1030 1110v-51h-303v35q0 192 -149 192q-67 0 -108.5 -45t-41.5 -119q0 -99 94 -157l299 -191q132 -84 180 -166.5t48 -208.5q0 -214 -125.5 -320t-382.5 -106q-105 0 -185.5 22.5t-129.5 59.5t-80 89t-42.5 105.5t-11.5 115.5v92h314v-39q0 -114 38 -167.5t129 -53.5
q78 0 121 42.5t43 120.5q0 18 -3 34t-5.5 29t-11 26.5t-13 21.5t-17.5 20t-18 17t-22.5 16.5t-22 14.5t-25 15.5t-24.5 14.5l-184 113q-77 47 -124.5 86t-84.5 89t-53 111t-16 142q0 100 35.5 176t101.5 123t154.5 70.5t197.5 23.5q85 0 153 -15.5t112 -38.5t76 -59
t48.5 -68t25.5 -75.5t11 -71.5t2 -65zM236 1923h186l145 -182l144 182h190l-221 -293h-227z" />
    <glyph glyph-name="scaron" unicode="&#x161;" horiz-adv-x="909" 
d="M453 1055q177 0 280 -80q44 -35 65 -85.5t21 -133.5v-19h-274v19q0 72 -24.5 106.5t-78.5 34.5q-47 0 -73.5 -28t-26.5 -74q0 -36 17.5 -62.5t62.5 -48.5l186 -90q128 -62 185 -134t57 -167q0 -152 -106 -230.5t-312 -78.5q-185 0 -279 72.5t-94 226.5q0 22 2 49h281v-39
q0 -74 29 -107.5t86 -33.5q51 0 80.5 28.5t29.5 79.5q0 33 -9.5 57.5t-30 43t-36.5 28t-45 23.5l-174 84q-46 23 -77 42.5t-63 50.5t-48 72.5t-16 94.5q0 139 103.5 219t281.5 80zM121 1479h186l146 -183l143 183h190l-221 -293h-227z" />
    <glyph glyph-name="Tcommaaccent" unicode="&#x162;" 
d="M12 1479h998v-240h-344v-1239h-314v1239h-340v240zM410 -102h262l-242 -293h-135z" />
    <glyph glyph-name="tcommaaccent" unicode="&#x163;" horiz-adv-x="569" 
d="M393 1321v-287h160v-184h-160v-549q0 -69 20 -97t74 -28q40 0 60 2v-180q-78 -8 -135 -8q-160 0 -228.5 67t-68.5 222v571h-119v184h121v168zM186 -102h263l-242 -293h-135z" />
    <glyph glyph-name="Tcaron" unicode="&#x164;" 
d="M12 1479h998v-240h-344v-1239h-314v1239h-340v240zM178 1923h187l145 -182l143 182h191l-221 -293h-228z" />
    <glyph glyph-name="tcaron" unicode="&#x165;" horiz-adv-x="569" 
d="M393 1321v-287h160v-184h-160v-549q0 -69 20 -97t74 -28q40 0 60 2v-180q-78 -8 -135 -8q-160 0 -228.5 67t-68.5 222v571h-119v184h121v168zM565 1479h252l-180 -293h-135z" />
    <glyph glyph-name="Tbar" unicode="&#x166;" 
d="M12 1479h998v-240h-344v-354h241v-219h-241v-666h-314v666h-237v219h237v354h-340v240z" />
    <glyph glyph-name="tbar" unicode="&#x167;" horiz-adv-x="569" 
d="M393 1321v-287h160v-184h-160v-143h160v-185h-160v-221q0 -69 20 -97t74 -28q40 0 60 2v-180q-78 -8 -135 -8q-160 0 -228.5 67t-68.5 222v243h-119v185h119v143h-119v184h121v168z" />
    <glyph glyph-name="Utilde" unicode="&#x168;" horiz-adv-x="1251" 
d="M123 1479h309v-996q0 -148 46 -219t143 -71q204 0 204 288v998h301v-992q0 -263 -124 -388.5t-386 -125.5q-252 0 -372.5 127.5t-120.5 388.5v990zM866 1892h125q-18 -117 -80.5 -187.5t-132.5 -70.5q-56 0 -109.5 22.5t-103 45t-96.5 22.5q-62 0 -80 -90h-121
q16 110 74 184t139 74q43 0 100.5 -24.5t109.5 -49t81 -24.5q84 0 94 98z" />
    <glyph glyph-name="utilde" unicode="&#x169;" 
d="M121 1034h287v-710q0 -82 23.5 -121t72.5 -39q53 0 81.5 44.5t28.5 119.5v706h289v-821q0 -69 4 -213h-280l-4 111q-44 -67 -103 -98t-143 -31q-125 0 -190.5 72t-65.5 198v782zM743 1448h125q-18 -117 -80.5 -187.5t-132.5 -70.5q-56 0 -109.5 22.5t-103 45t-96.5 22.5
q-62 0 -80 -90h-121q16 110 74 184t139 74q42 0 100 -24.5t110 -49t81 -24.5q84 0 94 98z" />
    <glyph glyph-name="Umacron" unicode="&#x16a;" horiz-adv-x="1251" 
d="M123 1479h309v-996q0 -148 46 -219t143 -71q204 0 204 288v998h301v-992q0 -263 -124 -388.5t-386 -125.5q-252 0 -372.5 127.5t-120.5 388.5v990zM336 1831h592v-148h-592v148z" />
    <glyph glyph-name="umacron" unicode="&#x16b;" 
d="M121 1034h287v-710q0 -82 23.5 -121t72.5 -39q53 0 81.5 44.5t28.5 119.5v706h289v-821q0 -69 4 -213h-280l-4 111q-44 -67 -103 -98t-143 -31q-125 0 -190.5 72t-65.5 198v782zM213 1386h592v-147h-592v147z" />
    <glyph glyph-name="Ubreve" unicode="&#x16c;" horiz-adv-x="1251" 
d="M123 1479h309v-996q0 -148 46 -219t143 -71q204 0 204 288v998h301v-992q0 -263 -124 -388.5t-386 -125.5q-252 0 -372.5 127.5t-120.5 388.5v990zM303 1923h117q28 -151 219 -151q172 0 207 151h117q-13 -141 -104 -220t-236 -79q-142 0 -226.5 78.5t-93.5 220.5z" />
    <glyph glyph-name="ubreve" unicode="&#x16d;" 
d="M121 1034h287v-710q0 -82 23.5 -121t72.5 -39q53 0 81.5 44.5t28.5 119.5v706h289v-821q0 -69 4 -213h-280l-4 111q-44 -67 -103 -98t-143 -31q-125 0 -190.5 72t-65.5 198v782zM180 1479h117q28 -152 219 -152q172 0 207 152h117q-13 -141 -104 -220t-236 -79
q-142 0 -226.5 78.5t-93.5 220.5z" />
    <glyph glyph-name="Uring" unicode="&#x16e;" horiz-adv-x="1251" 
d="M123 1479h309v-996q0 -148 46 -219t143 -71q204 0 204 288v998h301v-992q0 -263 -124 -388.5t-386 -125.5q-252 0 -372.5 127.5t-120.5 388.5v990zM846 1772q0 -87 -62 -150t-151 -63t-151 63t-62 150t63 150t150 63q89 0 151 -64t62 -149zM633 1651q51 0 86 35.5
t35 85.5q0 48 -35.5 84t-85.5 36q-51 0 -86 -35t-35 -85t34.5 -85.5t86.5 -35.5z" />
    <glyph glyph-name="uring" unicode="&#x16f;" 
d="M121 1034h287v-710q0 -82 23.5 -121t72.5 -39q53 0 81.5 44.5t28.5 119.5v706h289v-821q0 -69 4 -213h-280l-4 111q-44 -67 -103 -98t-143 -31q-125 0 -190.5 72t-65.5 198v782zM723 1327q0 -87 -62 -150t-151 -63t-151 63t-62 150t63 150t150 63q89 0 151 -64t62 -149z
M510 1206q51 0 86 35.5t35 85.5q0 48 -35.5 84.5t-85.5 36.5q-51 0 -86 -35.5t-35 -85.5t34.5 -85.5t86.5 -35.5z" />
    <glyph glyph-name="Uhungarumlaut" unicode="&#x170;" horiz-adv-x="1251" 
d="M123 1479h309v-996q0 -148 46 -219t143 -71q204 0 204 288v998h301v-992q0 -263 -124 -388.5t-386 -125.5q-252 0 -372.5 127.5t-120.5 388.5v990zM563 1923h277l-328 -293h-133zM905 1923h277l-328 -293h-133z" />
    <glyph glyph-name="uhungarumlaut" unicode="&#x171;" 
d="M121 1034h287v-710q0 -82 23.5 -121t72.5 -39q53 0 81.5 44.5t28.5 119.5v706h289v-821q0 -69 4 -213h-280l-4 111q-44 -67 -103 -98t-143 -31q-125 0 -190.5 72t-65.5 198v782zM469 1479h276l-327 -293h-133zM811 1479h276l-327 -293h-133z" />
    <glyph glyph-name="Uogonek" unicode="&#x172;" horiz-adv-x="1251" 
d="M123 1479h309v-998q0 -147 46 -217.5t143 -70.5q204 0 204 288v998h301v-994q0 -402 -301 -485q-73 -35 -117 -79.5t-44 -88.5q0 -74 92 -74q56 0 162 33v-102q-116 -54 -222 -54q-217 0 -217 154q0 51 30 99t85 85q-241 6 -356 134t-115 376v996z" />
    <glyph glyph-name="uogonek" unicode="&#x173;" 
d="M121 1034h287v-710q0 -82 23.5 -121t72.5 -39q53 0 81.5 44.5t28.5 119.5v706h289v-821q0 -69 4 -213h-98q-75 -36 -119.5 -80.5t-44.5 -87.5q0 -41 23 -57.5t69 -16.5q57 0 162 33v-102q-116 -54 -221 -54q-217 0 -217 154q0 67 49 127t117 84l-4 111q-44 -67 -103 -98
t-143 -31q-125 0 -190.5 72t-65.5 198v782z" />
    <glyph glyph-name="Wcircumflex" unicode="&#x174;" horiz-adv-x="1820" 
d="M-2 1479h317l195 -1039l235 1039h365l223 -1039l187 1039h303l-328 -1479h-342l-233 1081l-258 -1081h-336zM809 1923h227l221 -293h-190l-143 182l-146 -182h-186z" />
    <glyph glyph-name="wcircumflex" unicode="&#x175;" horiz-adv-x="1593" 
d="M23 1034h286l144 -772l200 772h299l185 -772l157 772h277l-281 -1034h-303l-188 698l-211 -698h-307zM684 1479h227l222 -293h-191l-143 182l-146 -182h-186z" />
    <glyph glyph-name="Ycircumflex" unicode="&#x176;" horiz-adv-x="1138" 
d="M14 1479h338l221 -625l236 625h315l-411 -936v-543h-314v543zM463 1923h227l221 -293h-190l-143 182l-146 -182h-186z" />
    <glyph glyph-name="ycircumflex" unicode="&#x177;" horiz-adv-x="909" 
d="M18 1034h287l150 -727l157 727h279l-399 -1427h-304l111 383zM346 1479h227l222 -293h-191l-143 182l-146 -182h-186z" />
    <glyph glyph-name="Ydieresis" unicode="&#x178;" horiz-adv-x="1138" 
d="M14 1479h338l221 -625l236 625h315l-411 -936v-543h-314v543zM274 1874h228v-221h-228v221zM637 1874h227v-221h-227v221z" />
    <glyph glyph-name="Zacute" unicode="&#x179;" 
d="M72 1479h891v-269l-592 -979h606v-231h-934v270l600 981h-571v228zM545 1923h276l-327 -293h-134z" />
    <glyph glyph-name="zacute" unicode="&#x17a;" horiz-adv-x="796" 
d="M61 1034h682v-194l-403 -654h410v-186h-703v211l395 639h-381v184zM442 1479h277l-328 -293h-133z" />
    <glyph glyph-name="Zdotaccent" unicode="&#x17b;" 
d="M72 1479h891v-269l-592 -979h606v-231h-934v270l600 981h-571v228zM403 1874h228v-221h-228v221z" />
    <glyph glyph-name="zdotaccent" unicode="&#x17c;" horiz-adv-x="796" 
d="M61 1034h682v-194l-403 -654h410v-186h-703v211l395 639h-381v184zM291 1430h227v-222h-227v222z" />
    <glyph glyph-name="Zcaron" unicode="&#x17d;" 
d="M72 1479h891v-269l-592 -979h606v-231h-934v270l600 981h-571v228zM178 1923h187l145 -182l143 182h191l-221 -293h-228z" />
    <glyph glyph-name="zcaron" unicode="&#x17e;" horiz-adv-x="796" 
d="M61 1034h682v-194l-403 -654h410v-186h-703v211l395 639h-381v184zM66 1479h186l145 -183l144 183h190l-221 -293h-227z" />
    <glyph glyph-name="florin" unicode="&#x192;" horiz-adv-x="909" 
d="M848 1442l-33 -217q-27 10 -51 10q-53 0 -80 -31t-41 -100l-35 -180h166l-24 -174h-164l-94 -603q-13 -81 -19.5 -120.5t-22.5 -103t-33 -93.5t-47 -70.5t-68 -58.5t-93 -31.5t-125 -13.5q-49 0 -82 8l31 209q16 -8 39 -8q60 0 87 48t40 134l106 703h-135l27 174h137
l10 80q31 244 115 344q85 100 284 100q59 0 105 -6z" />
    <glyph glyph-name="Aringacute" unicode="&#x1fa;" horiz-adv-x="1251" 
d="M682 1985h276l-276 -183h-174zM840 1526q0 -38 -17 -84l412 -1442h-326l-82 328h-421l-84 -328h-306l418 1436q-20 33 -20 90q0 87 63 150t150 63q86 0 149.5 -62.5t63.5 -150.5zM627 1405q51 0 86 35.5t35 85.5q0 48 -35.5 84.5t-85.5 36.5q-51 0 -86 -35.5t-35 -85.5
q0 -51 35 -86t86 -35zM612 1194h-4l-141 -639h295z" />
    <glyph glyph-name="aringacute" unicode="&#x1fb;" 
d="M549 1784h276l-276 -182h-174zM897 725v-498q0 -112 16 -227h-268l-14 137q-92 -155 -266 -155q-134 0 -206.5 84t-72.5 237q0 129 45 203q46 76 138 110.5t272 34.5h75v117q0 66 -26 97.5t-90 31.5q-61 0 -89 -37.5t-28 -124.5h-272v15q0 161 100.5 233t298.5 72
q204 0 295.5 -80t91.5 -250zM475 156q75 0 112.5 63t37.5 199v82h-23q-161 0 -205 -54q-28 -32 -28 -120q0 -36 3 -60.5t12.5 -52.5t32 -42.5t58.5 -14.5zM725 1327q0 -87 -62 -150t-151 -63q-90 0 -151.5 63t-61.5 150t63 150t150 63q90 0 151.5 -64.5t61.5 -148.5z
M512 1206q51 0 86 35.5t35 85.5q0 48 -35 84.5t-86 36.5t-86 -35.5t-35 -85.5q0 -51 34 -86t87 -35z" />
    <glyph glyph-name="AEacute" unicode="&#x1fc;" horiz-adv-x="1705" 
d="M504 1479h1100v-228h-592l67 -364h496v-228h-457l82 -432h442v-227h-708l-55 328h-461l-99 -328h-303zM711 1284h-4l-215 -729h346zM920 1923h276l-328 -293h-133z" />
    <glyph glyph-name="aeacute" unicode="&#x1fd;" horiz-adv-x="1593" 
d="M811 909q44 73 109.5 109.5t166.5 36.5q78 0 140 -14t105.5 -38t75.5 -61.5t50.5 -77.5t30 -94t15 -103.5t3.5 -111.5v-74h-563q0 -43 1 -71t5 -69.5t13.5 -69t24 -54t39.5 -40t58 -13.5q123 0 123 184h293q-9 -181 -117 -274.5t-299 -93.5q-127 0 -206 47t-107 133
q-52 -93 -133 -136.5t-213 -43.5q-164 0 -253 85t-89 240q0 82 20.5 141.5t55.5 96t93 59t120 31.5t149 12q29 0 140 -2v98q0 75 -31 113.5t-109 38.5q-129 0 -129 -160h-282q1 77 22 134t56 92.5t87.5 57.5t108.5 30t127 8q234 0 299 -146zM944 643h275v35q0 215 -134 215
q-141 0 -141 -225v-25zM498 164q89 0 127.5 53.5t38.5 161.5q0 41 -2 102q-74 4 -95 4q-49 0 -82 -6.5t-62 -25.5t-42.5 -57t-13.5 -97q0 -64 33 -99.5t98 -35.5zM862 1479h277l-328 -293h-133z" />
    <glyph glyph-name="Oslashacute" unicode="&#x1fe;" horiz-adv-x="1251" 
d="M999 1397l95 141l135 -84l-139 -207q31 -91 40 -207t9 -292q0 -90 -1 -142t-6 -129.5t-14.5 -123t-27.5 -106t-44 -95.5t-65.5 -73.5t-90.5 -58.5t-119.5 -33.5t-152.5 -13.5q-204 0 -321 90l-107 -157l-137 86l137 205q-41 86 -59 203.5t-18 357.5q0 79 2.5 141t9 130
t18.5 120t32 105t47 91t65.5 72.5t87 55.5t111.5 33t139 12q253 0 374 -121zM430 551l379 563q-17 96 -60 139t-124 43q-44 0 -76 -12.5t-53.5 -42t-35 -67t-20.5 -98.5t-9.5 -124t-2.5 -157v-150q0 -47 2 -94zM823 786v62l-360 -537q41 -118 160 -118q50 0 84.5 13.5
t56.5 54t34 76t17.5 119.5t6.5 141.5t1 182.5v6zM635 1923h276l-327 -293h-133z" />
    <glyph glyph-name="oslashacute" unicode="&#x1ff;" 
d="M809 979l109 137l92 -67l-129 -164q53 -114 53 -348q0 -117 -9 -197.5t-36.5 -154.5t-76 -117.5t-129.5 -69t-196 -25.5q-173 0 -266 80l-100 -127l-96 68l122 156q-57 116 -57 364q0 107 8.5 183t34.5 149t71 117.5t120.5 71t181.5 26.5q202 0 303 -82zM373 580v-146
l264 330q-13 59 -40.5 89t-80.5 30q-45 0 -74 -20t-44 -62.5t-20 -93t-5 -127.5zM651 596l-260 -330q13 -58 41.5 -83t77.5 -25q78 0 109.5 75t31.5 261v102zM541 1479h276l-328 -293h-133z" />
    <glyph glyph-name="Scommaaccent" unicode="&#x218;" horiz-adv-x="1138" 
d="M1030 1110v-51h-303v35q0 192 -149 192q-67 0 -108.5 -45t-41.5 -119q0 -99 94 -157l299 -191q132 -84 180 -166.5t48 -208.5q0 -214 -125.5 -320t-382.5 -106q-105 0 -185.5 22.5t-129.5 59.5t-80 89t-42.5 105.5t-11.5 115.5v92h314v-39q0 -114 38 -167.5t129 -53.5
q78 0 121 42.5t43 120.5q0 18 -3 34t-5.5 29t-11 26.5t-13 21.5t-17.5 20t-18 17t-22.5 16.5t-22 14.5t-25 15.5t-24.5 14.5l-184 113q-77 47 -124.5 86t-84.5 89t-53 111t-16 142q0 100 35.5 176t101.5 123t154.5 70.5t197.5 23.5q85 0 153 -15.5t112 -38.5t76 -59
t48.5 -68t25.5 -75.5t11 -71.5t2 -65zM459 -102h262l-242 -293h-135z" />
    <glyph glyph-name="scommaaccent" unicode="&#x219;" horiz-adv-x="909" 
d="M453 1055q177 0 280 -80q44 -35 65 -85.5t21 -133.5v-19h-274v19q0 72 -24.5 106.5t-78.5 34.5q-47 0 -73.5 -28t-26.5 -74q0 -36 17.5 -62.5t62.5 -48.5l186 -90q128 -62 185 -134t57 -167q0 -152 -106 -230.5t-312 -78.5q-185 0 -279 72.5t-94 226.5q0 22 2 49h281v-39
q0 -74 29 -107.5t86 -33.5q51 0 80.5 28.5t29.5 79.5q0 33 -9.5 57.5t-30 43t-36.5 28t-45 23.5l-174 84q-46 23 -77 42.5t-63 50.5t-48 72.5t-16 94.5q0 139 103.5 219t281.5 80zM342 -102h262l-242 -293h-135z" />
    <glyph glyph-name="uni021A" unicode="&#x21a;" 
d="M12 1479h998v-240h-344v-1239h-314v1239h-340v240zM410 -102h262l-242 -293h-135z" />
    <glyph glyph-name="uni021B" unicode="&#x21b;" horiz-adv-x="569" 
d="M393 1321v-287h160v-184h-160v-549q0 -69 20 -97t74 -28q40 0 60 2v-180q-78 -8 -135 -8q-160 0 -228.5 67t-68.5 222v571h-119v184h121v168zM186 -102h263l-242 -293h-135z" />
    <glyph glyph-name="dotlessj" unicode="&#x237;" horiz-adv-x="569" 
d="M139 1034h289v-1128q0 -151 -63.5 -224t-204.5 -73q-50 0 -97 6v182q41 0 58.5 19.5t17.5 64.5v1153z" />
    <glyph glyph-name="circumflex" unicode="&#x2c6;" horiz-adv-x="569" 
d="M168 1479h227l221 -293h-190l-143 182l-146 -182h-186z" />
    <glyph glyph-name="caron" unicode="&#x2c7;" horiz-adv-x="569" 
d="M-49 1479h186l146 -183l143 183h190l-221 -293h-227z" />
    <glyph glyph-name="uni02C9" unicode="&#x2c9;" horiz-adv-x="569" 
d="M-12 1386h592v-147h-592v147z" />
    <glyph glyph-name="breve" unicode="&#x2d8;" horiz-adv-x="569" 
d="M-45 1479h117q28 -152 219 -152q172 0 207 152h116q-13 -141 -104 -220t-236 -79q-141 0 -225.5 78.5t-93.5 220.5z" />
    <glyph glyph-name="dotaccent" unicode="&#x2d9;" horiz-adv-x="569" 
d="M170 1430h227v-222h-227v222z" />
    <glyph glyph-name="ring" unicode="&#x2da;" horiz-adv-x="569" 
d="M498 1327q0 -87 -62 -150t-151 -63t-151 63t-62 150t63 150t150 63q89 0 151 -64t62 -149zM285 1206q51 0 86 35.5t35 85.5q0 48 -35.5 84.5t-85.5 36.5q-51 0 -86 -35.5t-35 -85.5t34.5 -85.5t86.5 -35.5z" />
    <glyph glyph-name="ogonek" unicode="&#x2db;" horiz-adv-x="569" 
d="M209 0h180q-76 -37 -120 -80.5t-44 -87.5q0 -74 92 -74q57 0 162 33v-102q-116 -54 -221 -54q-217 0 -217 154q0 69 51 128t117 83z" />
    <glyph glyph-name="tilde" unicode="&#x2dc;" horiz-adv-x="569" 
d="M518 1448h125q-18 -117 -80.5 -187.5t-132.5 -70.5q-56 0 -109.5 22.5t-103 45t-96.5 22.5q-62 0 -80 -90h-121q16 110 74 184t139 74q42 0 100 -24.5t110 -49t81 -24.5q84 0 94 98z" />
    <glyph glyph-name="hungarumlaut" unicode="&#x2dd;" horiz-adv-x="911" 
d="M293 1479h276l-327 -293h-133zM635 1479h276l-327 -293h-133z" />
    <glyph glyph-name="uni0394" unicode="&#x394;" horiz-adv-x="1277" 
d="M426 1479h387l465 -1479h-1278zM621 1159l-238 -895h498z" />
    <glyph glyph-name="uni03A9" unicode="&#x3a9;" horiz-adv-x="1251" 
d="M1141 885q0 -79 -3.5 -137t-15.5 -123.5t-32.5 -114.5t-57.5 -95t-88 -79v-88h189v-248h-418v496q112 68 112 295l-2 186q-1 62 -5.5 107t-17 87t-34 68t-56.5 41.5t-83 15.5q-112 0 -157.5 -75t-47.5 -238q-2 -123 -2 -195q0 -227 113 -292v-496h-418v248h188v88
q-44 28 -77.5 65t-54.5 82t-34.5 90t-19.5 103t-8 105t-2 112q0 57 1 96t6.5 95.5t15 96t28 88t44.5 82t65 67.5t89 54t118 33t149 13q106 0 189 -22.5t136.5 -54t91.5 -88.5t57 -103.5t29 -121.5t11.5 -120.5t1.5 -122.5z" />
    <glyph glyph-name="uni03BC" unicode="&#x3bc;" 
d="M115 1034h288v-725q0 -82 26 -116.5t83 -34.5t83 35t26 118v723h288v-1034h-288v104h-5q-72 -121 -213 -124v-371h-288v1425z" />
    <glyph glyph-name="pi" unicode="&#x3c0;" horiz-adv-x="1216" 
d="M63 1055h1092v-228h-162v-489q0 -67 16 -100t62 -33q37 0 86 22v-190q-102 -55 -213 -55q-128 0 -183.5 82t-55.5 245v518h-211v-827h-287v827h-144v228z" />
    <glyph glyph-name="uni0400" unicode="&#x400;" 
d="M129 1479h807v-228h-498v-364h459v-228h-459v-428h514v-231h-823v1479zM227 1923h277l184 -293h-133z" />
    <glyph glyph-name="afii10023" unicode="&#x401;" 
d="M129 1479h807v-228h-498v-364h459v-228h-459v-428h514v-231h-823v1479zM217 1874h227v-221h-227v221zM580 1874h227v-221h-227v221z" />
    <glyph glyph-name="afii10051" unicode="&#x402;" horiz-adv-x="1423" 
d="M12 1479h998v-240h-344v-389q41 24 106 41.5t119 17.5q226 0 343.5 -111t117.5 -327q0 -254 -115.5 -374t-362.5 -120q-45 0 -94 7v221h19q141 0 199.5 59t58.5 217q0 103 -49.5 152t-161.5 49q-102 0 -180 -59v-623h-314v1239h-340v240z" />
    <glyph glyph-name="afii10052" unicode="&#x403;" horiz-adv-x="897" 
d="M133 1479h758v-228h-449v-1251h-309v1479zM504 1923h276l-327 -293h-134z" />
    <glyph glyph-name="afii10053" unicode="&#x404;" horiz-adv-x="1138" 
d="M1051 1047h-303q0 118 -41 176.5t-113 58.5q-102 0 -139 -87t-37 -308h325v-228h-327q0 -261 37 -361.5t151 -100.5q78 0 118 64.5t40 203.5h305q0 -250 -107.5 -370t-343.5 -120q-92 0 -166 15.5t-125.5 51.5t-89.5 71t-60.5 100.5t-36.5 112t-19.5 132.5t-6.5 135.5
t-1 145.5q0 134 2.5 208.5t19.5 174.5t51 168q105 213 410 213q233 0 345 -114t112 -342z" />
    <glyph glyph-name="afii10054" unicode="&#x405;" horiz-adv-x="1138" 
d="M1030 1110v-51h-303v35q0 192 -149 192q-67 0 -108.5 -45t-41.5 -119q0 -99 94 -157l299 -191q132 -84 180 -166.5t48 -208.5q0 -214 -125.5 -320t-382.5 -106q-105 0 -185.5 22.5t-129.5 59.5t-80 89t-42.5 105.5t-11.5 115.5v92h314v-39q0 -114 38 -167.5t129 -53.5
q78 0 121 42.5t43 120.5q0 18 -3 34t-5.5 29t-11 26.5t-13 21.5t-17.5 20t-18 17t-22.5 16.5t-22 14.5t-25 15.5t-24.5 14.5l-184 113q-77 47 -124.5 86t-84.5 89t-53 111t-16 142q0 100 35.5 176t101.5 123t154.5 70.5t197.5 23.5q85 0 153 -15.5t112 -38.5t76 -59
t48.5 -68t25.5 -75.5t11 -71.5t2 -65z" />
    <glyph glyph-name="afii10055" unicode="&#x406;" horiz-adv-x="569" 
d="M129 1479h309v-1479h-309v1479z" />
    <glyph glyph-name="afii10056" unicode="&#x407;" horiz-adv-x="569" 
d="M129 1479h309v-1479h-309v1479zM-10 1874h227v-221h-227v221zM352 1874h228v-221h-228v221z" />
    <glyph glyph-name="afii10057" unicode="&#x408;" 
d="M600 1479h309v-1149q0 -164 -120.5 -257t-335.5 -93q-217 0 -319.5 95t-102.5 296v121h315v-117q0 -178 119 -178q73 0 104 43.5t31 146.5v1092z" />
    <glyph glyph-name="afii10058" unicode="&#x409;" horiz-adv-x="1802" 
d="M252 1479h860v-586h217q98 0 171.5 -23t119 -62t74 -96.5t39 -120t10.5 -140.5q0 -451 -393 -451h-547v1251h-258v-497q0 -359 -43 -488q-17 -53 -42 -98t-65 -89.5t-100.5 -70.5t-134.5 -26q-100 0 -152 18v225q42 -6 64 -6q137 0 170 262q10 78 10 258v740zM1112 231
h145q173 0 173 228q0 98 -44 150.5t-112 52.5h-162v-431z" />
    <glyph glyph-name="afii10059" unicode="&#x40a;" horiz-adv-x="1802" 
d="M139 1479h310v-586h354v586h309v-586h221q101 0 176 -26t119 -66.5t70.5 -101t35.5 -118.5t9 -130q0 -451 -391 -451h-549v662h-354v-662h-310v1479zM1112 231h145q173 0 173 228q0 78 -45.5 140.5t-110.5 62.5h-162v-431z" />
    <glyph glyph-name="afii10060" unicode="&#x40b;" horiz-adv-x="1423" 
d="M12 1479h998v-240h-344v-354q110 18 190 18q134 0 224 -29t137 -86.5t65 -126t18 -165.5v-496h-309v451q0 128 -47 174.5t-135 46.5q-70 0 -143 -13v-659h-314v1239h-340v240z" />
    <glyph glyph-name="afii10061" unicode="&#x40c;" horiz-adv-x="1138" 
d="M111 1479h311v-623l364 623h340l-413 -664l413 -815h-348l-356 748v-748h-311v1479zM604 1923h277l-328 -293h-133z" />
    <glyph glyph-name="uni040D" unicode="&#x40d;" horiz-adv-x="1275" 
d="M139 1479h299v-940h6l347 940h346v-1479h-299v940h-7l-346 -940h-346v1479zM307 1923h277l184 -293h-133z" />
    <glyph glyph-name="afii10062" unicode="&#x40e;" horiz-adv-x="1138" 
d="M264 1864h154q6 -50 45 -76.5t108 -26.5q139 0 154 103h154q-7 -126 -89 -196.5t-219 -70.5t-218.5 70.5t-88.5 196.5zM6 1479h328l244 -701l256 701h299l-582 -1479h-318l189 410z" />
    <glyph glyph-name="afii10145" unicode="&#x40f;" horiz-adv-x="1251" 
d="M139 1479h310v-1248h354v1248h309v-1479h-342v-289h-289v289h-342v1479z" />
    <glyph glyph-name="afii10017" unicode="&#x410;" horiz-adv-x="1251" 
d="M426 1479h408l401 -1479h-326l-82 328h-421l-84 -328h-306zM610 1194l-145 -643h299z" />
    <glyph glyph-name="afii10018" unicode="&#x411;" horiz-adv-x="1228" 
d="M133 1479h897v-228h-588v-364h211q250 0 361.5 -109.5t111.5 -341.5q0 -121 -30 -207.5t-87 -135.5t-130.5 -71t-169.5 -22h-576v1479zM442 231h179q196 0 196 209q0 108 -47 162.5t-156 54.5h-172v-426z" />
    <glyph glyph-name="afii10019" unicode="&#x412;" horiz-adv-x="1251" 
d="M133 1479h520q242 0 350.5 -90t108.5 -283q0 -285 -252 -338q142 -20 209.5 -108.5t67.5 -258.5q0 -209 -109.5 -305t-343.5 -96h-551v1479zM440 874h164q115 0 166 54q25 27 33 57.5t8 87.5q0 48 -14 82t-34 52.5t-54.5 28.5t-63.5 12.5t-72 2.5h-133v-377zM440 647
v-420h125q70 0 113.5 7.5t80 29t52.5 65t16 111.5q0 113 -52 160t-181 47h-154z" />
    <glyph glyph-name="afii10020" unicode="&#x413;" horiz-adv-x="897" 
d="M133 1479h758v-228h-449v-1251h-309v1479z" />
    <glyph glyph-name="afii10021" unicode="&#x414;" horiz-adv-x="1298" 
d="M281 1479h864v-1248h106v-520h-288v289h-654v-289h-289v520h97q69 151 112 361q52 258 52 887zM426 231h410v1020h-267q0 -402 -53 -694q-38 -220 -90 -326z" />
    <glyph glyph-name="afii10022" unicode="&#x415;" 
d="M129 1479h807v-228h-498v-364h459v-228h-459v-428h514v-231h-823v1479z" />
    <glyph glyph-name="afii10024" unicode="&#x416;" horiz-adv-x="1699" 
d="M12 1479h330l350 -633h6v633h303v-633h7l350 633h330l-394 -664l394 -815h-338l-342 758h-7v-758h-303v758h-6l-342 -758h-338l394 815z" />
    <glyph glyph-name="afii10025" unicode="&#x417;" horiz-adv-x="1138" 
d="M1008 1124q0 -299 -207 -348v-4q77 -16 124 -52t74 -112t27 -198q0 -221 -124.5 -328t-373.5 -107q-244 0 -350 102t-106 322v47h301v-73q0 -74 42.5 -125t129.5 -51q97 0 138.5 59t41.5 170q0 70 -14.5 114.5t-48 68.5t-76 33t-109.5 9q-38 0 -65 -2v232q1 0 29.5 -1
t45.5 -1q40 0 66.5 2.5t54 10t43.5 22.5t30 40t20 62.5t6 89.5q0 87 -39.5 133.5t-114.5 46.5q-80 0 -122 -52.5t-42 -119.5v-51h-301v51q0 210 111 299.5t360 89.5q227 0 338 -92.5t111 -286.5z" />
    <glyph glyph-name="afii10026" unicode="&#x418;" horiz-adv-x="1275" 
d="M139 1479h299v-940h6l347 940h346v-1479h-299v940h-7l-346 -940h-346v1479z" />
    <glyph glyph-name="afii10027" unicode="&#x419;" horiz-adv-x="1275" 
d="M332 1864h153q6 -50 45.5 -76.5t108.5 -26.5q139 0 154 103h153q-7 -126 -88.5 -196.5t-218.5 -70.5t-218.5 70.5t-88.5 196.5zM139 1479h299v-940h6l347 940h346v-1479h-299v940h-7l-346 -940h-346v1479z" />
    <glyph glyph-name="afii10028" unicode="&#x41a;" horiz-adv-x="1138" 
d="M111 1479h311v-623l364 623h340l-413 -664l413 -815h-348l-356 748v-748h-311v1479z" />
    <glyph glyph-name="afii10029" unicode="&#x41b;" horiz-adv-x="1271" 
d="M252 739v740h881v-1479h-310v1251h-278v-497q0 -316 -39 -473q-14 -60 -50.5 -121t-70.5 -92q-47 -42 -102.5 -64t-137.5 -22q-27 0 -73.5 6t-63.5 12v225q42 -6 64 -6q49 0 81.5 30t55.5 89q43 106 43 401z" />
    <glyph glyph-name="afii10030" unicode="&#x41c;" horiz-adv-x="1705" 
d="M123 1479h489l234 -1006l248 1006h481v-1479h-301v1141l-289 -1141h-295l-274 1141v-1141h-293v1479z" />
    <glyph glyph-name="afii10031" unicode="&#x41d;" horiz-adv-x="1251" 
d="M139 1479h312v-586h350v586h311v-1479h-311v651h-350v-651h-312v1479z" />
    <glyph glyph-name="afii10032" unicode="&#x41e;" horiz-adv-x="1251" 
d="M1139 750q0 -89 -1 -144.5t-6.5 -131.5t-15 -123.5t-28 -106.5t-45 -94.5t-65.5 -73t-90 -57.5t-119 -33t-151 -13q-78 0 -142 13t-112.5 35t-86.5 59t-64 76t-45 96t-29.5 108.5t-16.5 123.5t-7.5 132t-1.5 142q0 79 2.5 140.5t9 129.5t18 119.5t31.5 104.5t47 91.5
t65 73t86.5 55.5t111.5 33.5t139 12.5q104 0 184 -20t134.5 -51t92 -89t58 -112.5t31.5 -145t13.5 -162.5t2.5 -188zM428 840v-125q0 -81 1.5 -138t6.5 -115.5t13.5 -97t23 -74t35 -55t49.5 -31t66 -11.5q29 0 53 4.5t43 17.5t33.5 26.5t25.5 40t18.5 49t12.5 64t8 74t4 89
t1.5 99.5t0.5 115v141q0 148 -21 232t-63 117.5t-114 33.5q-116 0 -156.5 -100.5t-40.5 -355.5z" />
    <glyph glyph-name="afii10033" unicode="&#x41f;" horiz-adv-x="1251" 
d="M139 1479h973v-1479h-309v1251h-354v-1251h-310v1479z" />
    <glyph glyph-name="afii10034" unicode="&#x420;" horiz-adv-x="1138" 
d="M131 1479h520q226 0 328 -106t102 -339q0 -227 -106 -329.5t-322 -102.5h-211v-602h-311v1479zM442 829h125q201 0 201 211q0 67 -15.5 110.5t-48 64.5t-69.5 28.5t-92 7.5h-101v-422z" />
    <glyph glyph-name="afii10035" unicode="&#x421;" horiz-adv-x="1138" 
d="M1051 1057v-45h-303v28q0 236 -148 236q-36 0 -63.5 -14t-46.5 -36.5t-32 -63.5t-20.5 -81.5t-11.5 -105t-5 -119.5t-1 -139v-80t1 -75.5t3.5 -74t7 -65t11.5 -61.5t16.5 -51t23 -44.5t30.5 -30.5t39.5 -21.5t49.5 -6.5q160 0 160 274v17h305v-43q0 -233 -112 -352
t-349 -119q-77 0 -140 12.5t-111 33.5t-85 56.5t-62.5 72.5t-43.5 92t-28.5 103.5t-16 118.5t-7 127t-1.5 137q0 84 1 137t6 127t15 120.5t27.5 105t43.5 94.5t64.5 74t88 58.5t116.5 34t148 13.5q215 0 322.5 -109t107.5 -335z" />
    <glyph glyph-name="afii10036" unicode="&#x422;" 
d="M12 1479h998v-240h-344v-1239h-314v1239h-340v240z" />
    <glyph glyph-name="afii10037" unicode="&#x423;" horiz-adv-x="1138" 
d="M6 1479h328l244 -701l256 701h299l-582 -1479h-318l189 410z" />
    <glyph glyph-name="afii10038" unicode="&#x424;" horiz-adv-x="1701" 
d="M696 1479h310v-113q319 -9 466.5 -151t147.5 -433q0 -312 -150 -461t-464 -157v-164h-310v164q-311 8 -462.5 154.5t-151.5 463.5q0 291 147.5 433t466.5 151v113zM696 389v762q-169 -7 -236 -96t-67 -281q0 -203 68.5 -290.5t234.5 -94.5zM1006 1151v-762
q166 7 234.5 94.5t68.5 290.5q0 198 -69.5 283.5t-233.5 93.5z" />
    <glyph glyph-name="afii10039" unicode="&#x425;" horiz-adv-x="1138" 
d="M33 1479h352l209 -486l209 486h321l-368 -731l374 -748h-350l-227 510l-227 -510h-320l383 774z" />
    <glyph glyph-name="afii10040" unicode="&#x426;" horiz-adv-x="1275" 
d="M139 1479h310v-1248h354v1248h309v-1248h117v-520h-289v289h-801v1479z" />
    <glyph glyph-name="afii10041" unicode="&#x427;" horiz-adv-x="1189" 
d="M106 1479h310v-449q0 -123 44 -173t138 -50q70 0 143 12v660h310v-1479h-310v594q-104 -19 -161 -19q-250 0 -362 97t-112 305v502z" />
    <glyph glyph-name="afii10042" unicode="&#x428;" horiz-adv-x="1873" 
d="M139 1479h310v-1248h333v1248h310v-1248h333v1248h310v-1479h-1596v1479z" />
    <glyph glyph-name="afii10043" unicode="&#x429;" horiz-adv-x="1898" 
d="M139 1479h310v-1248h333v1248h310v-1248h333v1248h310v-1248h116v-520h-288v289h-1424v1479z" />
    <glyph glyph-name="afii10044" unicode="&#x42a;" horiz-adv-x="1359" 
d="M12 1479h621v-574h223q102 0 180 -22.5t127.5 -61.5t80.5 -97t43.5 -122.5t12.5 -144.5q0 -457 -407 -457h-569v1237h-312v242zM633 231h164q95 0 142.5 55.5t47.5 178.5q0 94 -49 151.5t-131 57.5h-174v-443z" />
    <glyph glyph-name="afii10045" unicode="&#x42b;" horiz-adv-x="1673" 
d="M1225 1479h309v-1479h-309v1479zM139 1479h310v-574h198q228 0 338.5 -108t110.5 -340q0 -457 -410 -457h-547v1479zM449 231h145q93 0 140.5 55.5t47.5 178.5q0 93 -50 151t-128 58h-155v-443z" />
    <glyph glyph-name="afii10046" unicode="&#x42c;" horiz-adv-x="1175" 
d="M139 1479h310v-574h219q228 0 338 -108t110 -340q0 -457 -409 -457h-568v1479zM449 231h165q93 0 141 55.5t48 178.5q0 93 -50 151t-128 58h-176v-443z" />
    <glyph glyph-name="afii10047" unicode="&#x42d;" horiz-adv-x="1138" 
d="M391 1047h-303q0 228 112 342t345 114q304 0 409 -213q34 -68 51 -167.5t20 -176t3 -207.5q0 -95 -1 -145.5t-7 -135.5t-19.5 -132.5t-36.5 -112t-60.5 -100.5t-89.5 -71.5t-126 -51t-166 -15.5q-236 0 -343 120t-107 370h305q0 -139 40 -203.5t118 -64.5
q114 0 151 100.5t37 361.5h-328v228h326q0 221 -37 308t-139 87q-72 0 -113 -58.5t-41 -176.5z" />
    <glyph glyph-name="afii10048" unicode="&#x42e;" horiz-adv-x="1773" 
d="M1663 739q0 -106 -1.5 -162t-8.5 -139.5t-24 -145.5t-46 -114q-112 -203 -430 -203q-96 0 -171.5 18t-128.5 48.5t-91.5 80t-61 103t-35.5 128t-17.5 144.5t-4.5 162h-194v-659h-310v1479h310v-592h194q2 77 7 133.5t18.5 125t35.5 116.5t60 96.5t90 78t127.5 48
t171.5 18.5q318 0 430 -203q29 -52 46 -114t24 -145.5t8.5 -139.5t1.5 -162zM1350 739q0 105 -3 177.5t-10.5 137.5t-21.5 104.5t-36 69t-53.5 42t-74.5 12.5q-115 0 -155 -110t-40 -388q0 -98 1 -159t5.5 -130t12.5 -109.5t22.5 -81.5t35.5 -61.5t50.5 -33t69.5 -12.5
q43 0 74 12t53 41.5t35.5 69.5t21 104.5t10.5 137t3 177.5z" />
    <glyph glyph-name="afii10049" unicode="&#x42f;" horiz-adv-x="1177" 
d="M469 1479h569v-1479h-309v602h-82q-108 0 -156 -50t-67 -179l-27 -183q-24 -148 -37 -190h-311q23 75 70 424q19 138 78 207t176 84v6q-139 23 -211 116t-72 248q0 187 100.5 290.5t278.5 103.5zM573 829h156v422h-145q-89 0 -135 -46t-46 -152q0 -104 46 -164t124 -60z
" />
    <glyph glyph-name="afii10065" unicode="&#x430;" 
d="M897 725v-498q0 -112 16 -227h-268l-14 137q-92 -155 -266 -155q-134 0 -206.5 84t-72.5 237q0 129 45 203q46 76 138 110.5t272 34.5h75v117q0 66 -26 97.5t-90 31.5q-61 0 -89 -37.5t-28 -124.5h-272v15q0 161 100.5 233t298.5 72q204 0 295.5 -80t91.5 -250zM475 156
q75 0 112.5 63t37.5 199v82h-23q-158 0 -205 -54q-28 -32 -28 -120q0 -36 3 -60.5t12.5 -52.5t32 -42.5t58.5 -14.5z" />
    <glyph glyph-name="afii10066" unicode="&#x431;" horiz-adv-x="1044" 
d="M741 1479h213q-2 -132 -68.5 -201.5t-230.5 -99.5t-222 -55q-95 -41 -133 -134q-31 -77 -34 -211h6q57 240 326 240q185 0 270.5 -129t85.5 -395q0 -152 -28 -254.5t-84.5 -158.5t-127.5 -78.5t-171 -22.5q-110 0 -184.5 22.5t-133 81.5t-86.5 168.5t-28 275.5v117
q0 246 33 383t104 213q47 51 122.5 81t182.5 52q98 20 139.5 42t48.5 63zM532 164q31 0 53 8t37 29t24 45t13.5 69.5t5.5 89t1 115.5q0 57 -1.5 95t-6 79t-14 66t-24.5 46t-38 30.5t-54 9.5q-30 0 -52 -9.5t-36 -31t-23 -46t-13 -64t-5.5 -75.5t-1.5 -90q0 -84 2 -135.5
t10 -100.5t22.5 -74.5t39 -40.5t61.5 -15z" />
    <glyph glyph-name="afii10067" unicode="&#x432;" horiz-adv-x="1017" 
d="M115 1034h485q159 0 235 -62.5t76 -195.5q0 -105 -48.5 -163.5t-137.5 -69.5v-4q102 -13 152.5 -70t50.5 -180q0 -162 -82 -225.5t-273 -63.5h-458v1034zM403 872v-239h111q100 0 100 133q0 51 -30 78.5t-76 27.5h-105zM403 471v-309h119q53 0 85 42t32 101
q0 80 -31.5 123t-89.5 43h-115z" />
    <glyph glyph-name="afii10068" unicode="&#x433;" horiz-adv-x="778" 
d="M123 1034h643v-184h-354v-850h-289v1034z" />
    <glyph glyph-name="afii10069" unicode="&#x434;" horiz-adv-x="1130" 
d="M244 1034h741v-850h98v-442h-268v258h-528v-258h-269v442h78q148 161 148 660v190zM393 184h303v674h-192q0 -468 -111 -674z" />
    <glyph glyph-name="afii10070" unicode="&#x435;" 
d="M932 471h-547v-102q0 -109 31 -158t98 -49q119 0 119 166v20h293q-9 -187 -114 -277.5t-310 -90.5q-148 0 -238 47q-56 29 -92 77.5t-52.5 118.5t-22 135.5t-5.5 161.5q0 76 3.5 131.5t14 115t29 100.5t50.5 79.5t77 61t108.5 36t145.5 13.5q190 0 289 -86
q125 -108 125 -389v-54zM385 631h250v67q0 176 -123 176q-71 0 -99 -53.5t-28 -158.5v-31z" />
    <glyph glyph-name="afii10072" unicode="&#x436;" horiz-adv-x="1525" 
d="M53 1034h301l258 -469h6v469h289v-469h6l258 469h302l-304 -493l336 -541h-325l-267 530h-6v-530h-289v530h-6l-266 -530h-326l336 541z" />
    <glyph glyph-name="afii10073" unicode="&#x437;" horiz-adv-x="946" 
d="M838 776q0 -100 -50.5 -161.5t-142.5 -71.5v-4q117 -15 166 -75t49 -177q0 -159 -100.5 -233t-321.5 -74q-185 0 -276.5 76.5t-91.5 240.5v47h280v-43q0 -71 27.5 -113.5t79.5 -42.5q55 0 84.5 42t29.5 112q0 39 -2.5 63t-12 42.5t-20.5 27t-38 14t-53 6.5t-76 1v163
q45 0 71 1.5t49 8t34 16t18.5 29t9.5 43t2 62.5q0 55 -24.5 86t-71.5 31q-99 0 -99 -131v-41h-272v41q0 146 90 219.5t299 73.5q187 0 275 -64t88 -215z" />
    <glyph glyph-name="afii10074" unicode="&#x438;" horiz-adv-x="1052" 
d="M115 1034h276v-604h6l238 604h303v-1034h-276v604h-7l-237 -604h-303v1034z" />
    <glyph glyph-name="afii10075" unicode="&#x439;" horiz-adv-x="1052" 
d="M233 1434h140q6 -53 50.5 -81t104.5 -28q62 0 106 28t50 81h139q-7 -120 -86.5 -188t-208.5 -68t-208.5 68t-86.5 188zM115 1034h276v-604h6l238 604h303v-1034h-276v604h-7l-237 -604h-303v1034z" />
    <glyph glyph-name="afii10076" unicode="&#x43a;" 
d="M119 1034h289v-473h4l268 473h301l-301 -485l334 -549h-326l-276 514h-4v-514h-289v1034z" />
    <glyph glyph-name="afii10077" unicode="&#x43b;" horiz-adv-x="1064" 
d="M475 850v-188q0 -137 -2.5 -209.5t-19.5 -170t-52 -157.5q-80 -137 -260 -137q-39 0 -121 12v186q32 -4 54 -4q23 0 41 7t31 26t22.5 39.5t16 60.5t10 76t5.5 98t2.5 114.5t0.5 137.5v293h743v-1034h-289v850h-182z" />
    <glyph glyph-name="afii10078" unicode="&#x43c;" horiz-adv-x="1402" 
d="M115 1034h409l170 -739h6l170 739h418v-1034h-278v786h-6l-195 -786h-223l-195 786h-6v-786h-270v1034z" />
    <glyph glyph-name="afii10079" unicode="&#x43d;" 
d="M115 1034h288v-401h218v401h288v-1034h-288v449h-218v-449h-288v1034z" />
    <glyph glyph-name="afii10080" unicode="&#x43e;" 
d="M934 539q0 -116 -9 -196t-36 -155t-75.5 -119t-129 -70t-195.5 -26q-99 0 -171 26.5t-115.5 71.5t-69 116.5t-34.5 147.5t-9 179q0 73 3.5 129t14.5 115.5t29.5 102.5t50 82.5t74.5 64t104.5 39t139.5 14.5q106 0 182 -22t123.5 -61.5t75 -106t37.5 -144.5t10 -188z
M510 162q76 0 104.5 68.5t28.5 238.5v121q0 159 -24.5 224t-104.5 65q-36 0 -61.5 -15t-39.5 -38t-22 -62t-10 -75.5t-2 -90.5v-78q0 -148 11 -222t38.5 -105t81.5 -31z" />
    <glyph glyph-name="afii10081" unicode="&#x43f;" 
d="M115 1034h794v-1034h-288v850h-218v-850h-288v1034z" />
    <glyph glyph-name="afii10082" unicode="&#x440;" 
d="M928 530v-71q0 -50 -2 -90.5t-7 -86t-15 -81t-24.5 -71.5t-37 -61.5t-52 -46t-69.5 -30.5t-88 -10q-143 0 -227 114v-489h-289v1427h270l4 -114q41 69 97.5 101t138.5 32q76 0 131 -25t87.5 -66.5t51.5 -110.5t25 -143t6 -178zM393 512v-41q0 -50 1 -82.5t5 -73
t12.5 -65.5t22.5 -48.5t37 -34.5t53 -11q72 0 96.5 74.5t24.5 279.5q0 61 -1.5 102.5t-5.5 88t-13 75.5t-23 54.5t-35.5 37t-50.5 11.5q-32 0 -54.5 -16t-36 -43t-20.5 -76t-9.5 -101t-2.5 -131z" />
    <glyph glyph-name="afii10083" unicode="&#x441;" 
d="M920 696v-30h-277q-1 43 -2.5 67.5t-8 54t-19 44.5t-35 25.5t-54.5 10.5q-81 0 -110 -63t-29 -211v-148q0 -153 26.5 -215.5t104.5 -62.5q68 0 99.5 47.5t31.5 144.5v21h279v-25q0 -370 -422 -370q-219 0 -322 127q-86 106 -86 305v84q0 254 43 356q28 67 90.5 112
t134 63t152.5 18q404 0 404 -355z" />
    <glyph glyph-name="afii10084" unicode="&#x442;" horiz-adv-x="854" 
d="M10 1034h834v-184h-273v-850h-288v850h-273v184z" />
    <glyph glyph-name="afii10085" unicode="&#x443;" horiz-adv-x="909" 
d="M18 1034h287l150 -727l157 727h279l-399 -1427h-304l111 383z" />
    <glyph glyph-name="afii10086" unicode="&#x444;" horiz-adv-x="1505" 
d="M608 1432h289v-461q42 38 107.5 61t128.5 23q61 0 108 -21.5t76.5 -63t49 -89t28.5 -113.5t12.5 -121.5t3.5 -126.5q0 -107 -7.5 -186t-28.5 -148.5t-56 -113t-91.5 -68t-133.5 -24.5q-102 0 -197 77v-450h-289v450q-93 -77 -194 -77q-77 0 -133 23.5t-92 66t-57 111
t-29.5 148t-8.5 187.5q0 58 1.5 103t8 104t18 103t32.5 89t50 74t72 47.5t97 18.5q62 0 127.5 -23t107.5 -61v461zM379 528q0 -164 12.5 -242t38.5 -103t82 -25q53 0 96 61v608q-46 50 -98 50q-32 0 -52.5 -5.5t-36 -23.5t-23.5 -39t-12.5 -66.5t-5.5 -90.5t-1 -124z
M897 827v-608q43 -61 96 -61q56 0 82.5 26.5t38.5 104t12 239.5q0 79 -1 123.5t-5.5 90t-12.5 66.5t-23.5 39.5t-36 24t-52.5 5.5q-55 0 -98 -50z" />
    <glyph glyph-name="afii10087" unicode="&#x445;" 
d="M45 1034h324l151 -313l176 313h287l-276 -495l297 -539h-326l-180 362l-191 -362h-287l306 543z" />
    <glyph glyph-name="afii10088" unicode="&#x446;" horiz-adv-x="1052" 
d="M115 1034h288v-850h218v850h288v-850h99v-442h-269v258h-624v1034z" />
    <glyph glyph-name="afii10089" unicode="&#x447;" horiz-adv-x="983" 
d="M74 1034h288v-325q0 -138 109 -138q52 0 109 21v442h288v-1034h-288v418q-22 -9 -98 -21t-132 -12q-139 0 -207.5 66t-68.5 190v393z" />
    <glyph glyph-name="afii10090" unicode="&#x448;" horiz-adv-x="1529" 
d="M115 1034h288v-850h218v850h288v-850h217v850h289v-1034h-1300v1034z" />
    <glyph glyph-name="afii10091" unicode="&#x449;" horiz-adv-x="1558" 
d="M115 1034h288v-850h218v850h288v-850h217v850h289v-850h98v-442h-268v258h-1130v1034z" />
    <glyph glyph-name="afii10092" unicode="&#x44a;" horiz-adv-x="1118" 
d="M10 1034h529v-377h170q189 0 273.5 -77.5t84.5 -260.5q0 -181 -89 -250t-292 -69h-436v850h-240v184zM539 479v-301h112q57 0 92 44t35 108q0 75 -32 112t-101 37h-106z" />
    <glyph glyph-name="afii10093" unicode="&#x44b;" horiz-adv-x="1413" 
d="M1008 1034h288v-1034h-288v1034zM106 1034h289v-377h142q189 0 273.5 -77.5t84.5 -260.5q0 -181 -89 -250t-292 -69h-408v1034zM395 479v-301h84q57 0 92 44t35 108q0 75 -32 112t-101 37h-78z" />
    <glyph glyph-name="afii10094" unicode="&#x44c;" horiz-adv-x="983" 
d="M115 1034h288v-377h170q189 0 274 -77.5t85 -260.5q0 -181 -89 -250t-292 -69h-436v1034zM403 479v-301h113q57 0 92 44t35 108q0 75 -32 112t-101 37h-107z" />
    <glyph glyph-name="afii10095" unicode="&#x44d;" 
d="M928 530q0 -110 -8.5 -187.5t-34.5 -150.5t-72 -116.5t-122.5 -69.5t-184.5 -26q-200 0 -305 98t-105 282h277q0 -92 33.5 -144t99.5 -52q49 0 77 23t43 85.5t17 178.5h-242v161h244q-1 149 -32.5 207t-106.5 58q-68 0 -98.5 -43t-30.5 -138h-277q0 171 106.5 265
t299.5 94q78 0 140.5 -14t106.5 -37.5t75.5 -62t50.5 -80t30.5 -98t15 -110.5t3.5 -123z" />
    <glyph glyph-name="afii10096" unicode="&#x44e;" horiz-adv-x="1474" 
d="M1384 530q0 -76 -3.5 -133t-14.5 -117t-30 -103t-50.5 -82t-75.5 -63t-106 -38t-141 -14q-103 0 -178.5 25t-120 65t-72 103.5t-37 126.5t-12.5 149h-140v-449h-288v1034h288v-401h140q9 227 113 324.5t307 97.5q79 0 141.5 -14t106 -38t75.5 -62.5t50.5 -79.5t29.5 -98
t14.5 -110.5t3.5 -122.5zM963 164q55 0 82.5 30.5t39 110.5t11.5 242q0 61 -1 98t-5.5 78.5t-13 65t-23 44t-37 29t-53.5 8.5q-85 0 -109.5 -70.5t-24.5 -252.5q0 -162 12 -242t39.5 -110.5t82.5 -30.5z" />
    <glyph glyph-name="afii10097" unicode="&#x44f;" horiz-adv-x="1044" 
d="M930 1034v-1034h-289v410h-63q-22 0 -40 -3t-32 -6.5t-26 -13.5t-19.5 -16.5t-15 -23.5t-11.5 -25.5t-10 -32t-8 -34.5t-8 -40q-18 -93 -52 -215h-288q33 100 73 289q7 34 12.5 55t20 51t33 47t51.5 30.5t76 14.5v2q-105 13 -165 82t-60 174q0 145 71 217t205 72h545z
M641 584v278h-137q-56 0 -83.5 -28.5t-27.5 -98.5q0 -68 29.5 -109.5t79.5 -41.5h139z" />
    <glyph glyph-name="uni0450" unicode="&#x450;" 
d="M932 471h-547v-102q0 -109 31 -158t98 -49q119 0 119 166v20h293q-9 -187 -114 -277.5t-310 -90.5q-148 0 -238 47q-56 29 -92 77.5t-52.5 118.5t-22 135.5t-5.5 161.5q0 76 3.5 131.5t14 115t29 100.5t50.5 79.5t77 61t108.5 36t145.5 13.5q190 0 289 -86
q125 -108 125 -389v-54zM385 631h250v67q0 176 -123 176q-71 0 -99 -53.5t-28 -158.5v-31zM203 1481h278l185 -295h-168z" />
    <glyph glyph-name="afii10071" unicode="&#x451;" 
d="M932 471h-547v-102q0 -109 31 -158t98 -49q119 0 119 166v20h293q-9 -187 -114 -277.5t-310 -90.5q-148 0 -238 47q-56 29 -92 77.5t-52.5 118.5t-22 135.5t-5.5 161.5q0 76 3.5 131.5t14 115t29 100.5t50.5 79.5t77 61t108.5 36t145.5 13.5q190 0 289 -86
q125 -108 125 -389v-54zM385 631h250v67q0 176 -123 176q-71 0 -99 -53.5t-28 -158.5v-31zM217 1430h227v-222h-227v222zM580 1430h227v-222h-227v222z" />
    <glyph glyph-name="afii10099" unicode="&#x452;" 
d="M131 1479h289v-152h307v-176h-307v-242q82 125 239 125q134 0 200.5 -69t66.5 -199v-649q0 -196 -93 -300t-272 -104q-51 0 -84 8v168q94 0 127 37.5t33 141.5v639q0 77 -24 112t-78 35q-55 0 -85 -41t-30 -115v-698h-289v1151h-156v176h156v152z" />
    <glyph glyph-name="afii10100" unicode="&#x453;" horiz-adv-x="778" 
d="M123 1034h643v-184h-354v-850h-289v1034zM424 1479h276l-327 -293h-133z" />
    <glyph glyph-name="afii10101" unicode="&#x454;" 
d="M96 530q0 69 3.5 123t15 110.5t30.5 98t50.5 80t75.5 62t106.5 37.5t140.5 14q193 0 299.5 -94t106.5 -265h-277q0 95 -30.5 138t-98.5 43q-75 0 -106.5 -58t-32.5 -207h244v-161h-242q2 -116 17 -178.5t43 -85.5t77 -23q66 0 99.5 52t33.5 144h277q0 -184 -105 -282
t-305 -98q-108 0 -184.5 26t-122.5 69.5t-72 116.5t-34.5 150.5t-8.5 187.5z" />
    <glyph glyph-name="afii10102" unicode="&#x455;" horiz-adv-x="909" 
d="M453 1055q177 0 280 -80q44 -35 65 -85.5t21 -133.5v-19h-274v19q0 72 -24.5 106.5t-78.5 34.5q-47 0 -73.5 -28t-26.5 -74q0 -36 17.5 -62.5t62.5 -48.5l186 -90q128 -62 185 -134t57 -167q0 -152 -106 -230.5t-312 -78.5q-185 0 -279 72.5t-94 226.5q0 22 2 49h281v-39
q0 -74 29 -107.5t86 -33.5q51 0 80.5 28.5t29.5 79.5q0 33 -9.5 57.5t-30 43t-36.5 28t-45 23.5l-174 84q-46 23 -77 42.5t-63 50.5t-48 72.5t-16 94.5q0 139 103.5 219t281.5 80z" />
    <glyph glyph-name="afii10103" unicode="&#x456;" horiz-adv-x="569" 
d="M139 1479h289v-234h-289v234zM139 1034h289v-1034h-289v1034z" />
    <glyph glyph-name="afii10104" unicode="&#x457;" horiz-adv-x="569" 
d="M139 1034h289v-1034h-289v1034zM-10 1430h227v-222h-227v222zM352 1430h228v-222h-228v222z" />
    <glyph glyph-name="afii10105" unicode="&#x458;" horiz-adv-x="569" 
d="M139 1479h289v-234h-289v234zM139 1034h289v-1128q0 -153 -63.5 -225t-204.5 -72q-35 0 -97 4v182q42 5 59 23.5t17 62.5v1153z" />
    <glyph glyph-name="afii10106" unicode="&#x459;" horiz-adv-x="1490" 
d="M1055 0h-404v850h-176v-188q0 -88 -0.5 -126.5t-4.5 -116t-12 -122.5t-25 -98t-42 -90q-80 -121 -250 -121q-39 0 -121 12v186q32 -4 54 -4q23 0 41 7t31 26t22.5 39.5t16 60.5t10 76t5.5 98t2.5 114.5t0.5 137.5v293h737v-401h141q182 0 270.5 -72t88.5 -252
q0 -92 -22.5 -152.5t-72.5 -95t-118.5 -48t-171.5 -13.5zM940 461v-289h98q44 0 78.5 40t34.5 107q0 40 -9.5 68t-22 42t-33 22t-33 9t-31.5 1h-82z" />
    <glyph glyph-name="afii10107" unicode="&#x45a;" horiz-adv-x="1460" 
d="M1024 0h-403v449h-218v-449h-288v1034h288v-401h218v401h288v-401h142q181 0 269.5 -72t88.5 -252q0 -92 -22.5 -152.5t-72.5 -95t-118.5 -48t-171.5 -13.5zM909 461v-289h99q44 0 78 40t34 107q0 40 -9.5 68t-22 42t-33 22t-33 9t-31.5 1h-82z" />
    <glyph glyph-name="afii10108" unicode="&#x45b;" 
d="M131 1479h289v-152h307v-176h-307v-242q82 125 239 125q133 0 200 -68.5t67 -199.5v-766h-289v707q0 80 -24.5 113.5t-77.5 33.5q-56 0 -85.5 -41t-29.5 -113v-700h-289v1151h-156v176h156v152z" />
    <glyph glyph-name="afii10109" unicode="&#x45c;" 
d="M119 1034h289v-473h4l268 473h301l-301 -485l334 -549h-326l-276 514h-4v-514h-289v1034zM526 1479h277l-328 -293h-133z" />
    <glyph glyph-name="uni045D" unicode="&#x45d;" horiz-adv-x="1052" 
d="M115 1034h276v-604h6l238 604h303v-1034h-276v604h-7l-237 -604h-303v1034zM193 1481h278l184 -295h-168z" />
    <glyph glyph-name="afii10110" unicode="&#x45e;" horiz-adv-x="909" 
d="M160 1434h139q6 -52 51 -80.5t105 -28.5q62 0 105.5 28t49.5 81h140q-7 -120 -86.5 -188t-208.5 -68t-208.5 68t-86.5 188zM18 1034h287l150 -727l157 727h279l-399 -1427h-304l111 383z" />
    <glyph glyph-name="afii10193" unicode="&#x45f;" 
d="M115 1034h288v-850h218v850h288v-1034h-260v-258h-268v258h-266v1034z" />
    <glyph glyph-name="afii10146" unicode="&#x462;" horiz-adv-x="1257" 
d="M258 1479h309v-179h262v-239h-262v-189h215q84 0 150 -15.5t111 -45t76 -67.5t48 -88.5t24 -102t7 -113.5q0 -222 -99.5 -331t-287.5 -109h-553v1061h-258v239h258v179zM567 231h144q88 0 131 50.5t43 167.5q0 83 -42.5 137.5t-111.5 54.5h-164v-410z" />
    <glyph glyph-name="afii10194" unicode="&#x463;" horiz-adv-x="1079" 
d="M211 1479h289v-445h211v-184h-211v-193h170q189 0 273.5 -77.5t84.5 -260.5q0 -181 -89 -250t-292 -69h-436v850h-211v184h211v445zM500 479v-301h112q57 0 92 44t35 108q0 75 -32 112t-101 37h-106z" />
    <glyph glyph-name="afii10147" unicode="&#x472;" horiz-adv-x="1251" 
d="M1139 750q0 -101 -1.5 -162.5t-8.5 -145.5t-21.5 -135t-39 -111.5t-63.5 -95.5t-92 -67t-127.5 -46t-167.5 -14q-78 0 -142.5 13.5t-113 35.5t-86.5 59.5t-64 76.5t-44.5 96t-29 108.5t-16.5 123.5t-7.5 131t-1.5 141q0 78 2.5 139.5t9 129.5t18 119.5t31.5 105t47 91.5
t65 73t86.5 56t111.5 33.5t139 12.5q82 0 149.5 -13t118 -32.5t89.5 -57t65 -72.5t44 -93.5t28 -105t15 -122t6 -130t1 -142.5zM414 877q43 34 104 34q49 0 117 -33.5t98 -33.5q71 0 103 51q0 108 -11.5 184.5t-29.5 120.5t-47.5 69t-58 32.5t-68.5 7.5q-46 0 -80.5 -14.5
t-56 -49t-35 -64.5t-20.5 -88t-9 -90.5t-5 -100.5q-1 -17 -1 -25zM414 655q0 -259 47 -366t164 -107q33 0 60 8t47 20.5t35.5 36.5t26 46t18 59.5t11.5 66.5t7 78t4 83.5t2 91.5v2q-47 -35 -109 -35q-37 0 -107.5 33t-107.5 33q-27 0 -56.5 -13t-41.5 -37z" />
    <glyph glyph-name="afii10195" unicode="&#x473;" 
d="M934 539q0 -81 -4 -141.5t-15.5 -122.5t-31.5 -105.5t-53 -83t-80 -63t-112 -37t-149 -13.5q-99 0 -171 26.5t-115.5 71.5t-69 116.5t-34.5 147.5t-9 179q0 73 3.5 129t14.5 115.5t29.5 102.5t50 82.5t74.5 64t104.5 39t139.5 14.5q108 0 184.5 -22.5t124 -62.5
t74 -107.5t36 -143.5t9.5 -186zM371 623q27 24 69 24q32 0 77 -22.5t63 -22.5q51 0 71 39q-3 136 -32 191t-105 55q-45 0 -74.5 -19t-43.5 -58t-19 -81t-6 -106zM371 444q5 -168 31 -229t108 -61q78 0 109.5 68.5t31.5 236.5q-31 -25 -76 -25q-25 0 -70.5 21.5t-68.5 21.5
q-44 0 -65 -33z" />
    <glyph glyph-name="afii10148" unicode="&#x474;" horiz-adv-x="1138" 
d="M1047 1497q46 0 106 -6v-211q-17 2 -29 2q-29 0 -48 -7t-29.5 -22.5t-15 -27.5t-9.5 -33l-295 -1192h-362l-355 1479h322l221 -1076l184 838q8 35 17 62.5t24.5 59t38 54t54 41.5t76 29t100.5 10z" />
    <glyph glyph-name="afii10196" unicode="&#x475;" horiz-adv-x="909" 
d="M840 1044q28 0 88 -6v-182q-13 2 -21 2q-47 0 -65 -17.5t-29 -62.5l-205 -778h-317l-275 1034h293l148 -776l102 571q21 115 89 165t192 50z" />
    <glyph glyph-name="afii10050" unicode="&#x490;" horiz-adv-x="897" 
d="M602 1767h289v-516h-449v-1251h-309v1479h469v288z" />
    <glyph glyph-name="afii10098" unicode="&#x491;" horiz-adv-x="778" 
d="M498 1303h268v-453h-354v-850h-289v1034h375v269z" />
    <glyph glyph-name="Wgrave" unicode="&#x1e80;" horiz-adv-x="1820" 
d="M-2 1479h317l195 -1039l235 1039h365l223 -1039l187 1039h303l-328 -1479h-342l-233 1081l-258 -1081h-336zM621 1923h276l184 -293h-133z" />
    <glyph glyph-name="wgrave" unicode="&#x1e81;" horiz-adv-x="1593" 
d="M23 1034h286l144 -772l200 772h299l185 -772l157 772h277l-281 -1034h-303l-188 698l-211 -698h-307zM444 1481h279l184 -295h-168z" />
    <glyph glyph-name="Wacute" unicode="&#x1e82;" horiz-adv-x="1820" 
d="M-2 1479h317l195 -1039l235 1039h365l223 -1039l187 1039h303l-328 -1479h-342l-233 1081l-258 -1081h-336zM997 1923h277l-328 -293h-133z" />
    <glyph glyph-name="wacute" unicode="&#x1e83;" horiz-adv-x="1593" 
d="M23 1034h286l144 -772l200 772h299l185 -772l157 772h277l-281 -1034h-303l-188 698l-211 -698h-307zM868 1479h277l-328 -293h-133z" />
    <glyph glyph-name="Wdieresis" unicode="&#x1e84;" horiz-adv-x="1820" 
d="M-2 1479h317l195 -1039l235 1039h365l223 -1039l187 1039h303l-328 -1479h-342l-233 1081l-258 -1081h-336zM629 1874h227v-221h-227v221zM991 1874h228v-221h-228v221z" />
    <glyph glyph-name="wdieresis" unicode="&#x1e85;" horiz-adv-x="1593" 
d="M23 1034h286l144 -772l200 772h299l185 -772l157 772h277l-281 -1034h-303l-188 698l-211 -698h-307zM506 1430h227v-222h-227v222zM868 1430h228v-222h-228v222z" />
    <glyph glyph-name="uni1E9E" unicode="&#x1e9e;" horiz-adv-x="1468" 
d="M1231 1466v-209q-42 -2 -86 -14.5t-87 -35.5t-70 -63t-27 -91q0 -29 23.5 -63t50.5 -57t74.5 -60.5t68.5 -55.5l63 -55q93 -82 129.5 -171t36.5 -200q0 -208 -112.5 -313t-319.5 -105q-228 0 -328.5 92.5t-103.5 319.5h303q0 -98 26.5 -146.5t98.5 -48.5q74 0 99.5 48
t25.5 145q0 19 -1.5 35t-7 31.5t-8.5 26t-15 24.5t-17.5 21t-24 23t-26.5 22.5t-33.5 26t-36.5 28.5l-60 47q-100 80 -158.5 160t-58.5 173q0 220 252 279q-83 6 -147 6q-159 0 -231 -76.5t-72 -240.5v-969h-316v963q0 151 38.5 255.5t118 167t192 90t270.5 27.5
q108 0 246 -10t231 -27z" />
    <glyph glyph-name="Ygrave" unicode="&#x1ef2;" horiz-adv-x="1138" 
d="M14 1479h338l221 -625l236 625h315l-411 -936v-543h-314v543zM266 1923h277l184 -293h-133z" />
    <glyph glyph-name="ygrave" unicode="&#x1ef3;" horiz-adv-x="909" 
d="M18 1034h287l150 -727l157 727h279l-399 -1427h-304l111 383zM98 1481h279l184 -295h-168z" />
    <glyph glyph-name="uni2010" unicode="&#x2010;" horiz-adv-x="681" 
d="M88 657h502v-208h-502v208z" />
    <glyph glyph-name="endash" unicode="&#x2013;" 
d="M0 639h1024v-170h-1024v170z" />
    <glyph glyph-name="emdash" unicode="&#x2014;" horiz-adv-x="2048" 
d="M0 639h2048v-170h-2048v170z" />
    <glyph glyph-name="quoteleft" unicode="&#x2018;" horiz-adv-x="454" 
d="M203 1479h196l-71 -404h-275z" />
    <glyph glyph-name="quoteright" unicode="&#x2019;" horiz-adv-x="454" 
d="M127 1479h274l-149 -404h-197z" />
    <glyph glyph-name="quotesinglbase" unicode="&#x201a;" horiz-adv-x="454" 
d="M127 186h274l-149 -403h-197z" />
    <glyph glyph-name="quotedblleft" unicode="&#x201c;" horiz-adv-x="909" 
d="M246 1479h215l-88 -404h-277zM602 1479h213l-90 -404h-276z" />
    <glyph glyph-name="quotedblright" unicode="&#x201d;" horiz-adv-x="909" 
d="M184 1479h277l-154 -404h-213zM537 1479h278l-149 -404h-217z" />
    <glyph glyph-name="quotedblbase" unicode="&#x201e;" horiz-adv-x="909" 
d="M184 186h277l-154 -401h-213zM537 186h278l-149 -401h-217z" />
    <glyph glyph-name="dagger" unicode="&#x2020;" horiz-adv-x="909" 
d="M330 1479h239v-316h320v-198h-320v-965h-239v965h-320v198h320v316z" />
    <glyph glyph-name="daggerdbl" unicode="&#x2021;" horiz-adv-x="909" 
d="M334 1479h229v-305h326v-193h-326v-489h326v-189h-326v-303h-229v303h-324v189h324v489h-324v193h324v305z" />
    <glyph glyph-name="bullet" unicode="&#x2022;" horiz-adv-x="860" 
d="M797 729q0 -151 -107.5 -257.5t-257.5 -106.5q-151 0 -257.5 106.5t-106.5 257.5t106 258t258 107q153 0 259 -107.5t106 -257.5z" />
    <glyph glyph-name="ellipsis" unicode="&#x2026;" horiz-adv-x="2048" 
d="M219 270h240v-270h-240v270zM905 270h240v-270h-240v270zM1589 270h240v-270h-240v270z" />
    <glyph glyph-name="perthousand" unicode="&#x2030;" horiz-adv-x="2048" 
d="M643 1122q0 -65 -4.5 -111.5t-20 -94.5t-42 -77.5t-73 -48t-110.5 -18.5q-65 0 -110.5 19.5t-70.5 48.5t-39 78t-17.5 92t-3.5 106q0 161 56 247.5t195 86.5q60 0 104 -17t70 -45t41 -72t20 -88.5t5 -105.5zM961 1450h174l-631 -1477h-172zM393 887q54 0 74 51.5
t20 179.5q0 88 -10 135t-28 63.5t-50 16.5q-52 0 -71 -56t-19 -173q0 -123 18.5 -170t65.5 -47zM1321 330q0 -65 -4.5 -111.5t-20 -94.5t-42 -77.5t-73 -48t-110.5 -18.5q-54 0 -95 12.5t-67 37.5t-42.5 54t-24.5 71.5t-10.5 79.5t-2.5 89q0 161 56.5 247t195.5 86
q60 0 104 -17t70 -44.5t41 -71.5t20 -88.5t5 -105.5zM1071 94q54 0 74 52t20 180q0 88 -10 135t-28 63.5t-50 16.5q-52 0 -71 -56.5t-19 -173.5q0 -123 18.5 -170t65.5 -47zM1929 330q0 -65 -4.5 -111.5t-20 -94.5t-42 -77.5t-73 -48t-110.5 -18.5q-65 0 -110.5 19.5
t-70.5 48.5t-39 78t-17.5 92t-3.5 106q0 161 56.5 247t195.5 86q60 0 104 -17t69.5 -44.5t40.5 -71.5t20 -88.5t5 -105.5zM1679 94q54 0 74.5 52t20.5 180q0 88 -10 135t-28 63.5t-50 16.5q-52 0 -71.5 -56.5t-19.5 -173.5q0 -123 18.5 -170t65.5 -47z" />
    <glyph glyph-name="guilsinglleft" unicode="&#x2039;" horiz-adv-x="454" 
d="M201 915h233l-174 -403l180 -393h-237l-191 393z" />
    <glyph glyph-name="guilsinglright" unicode="&#x203a;" horiz-adv-x="454" 
d="M18 915h236l186 -403l-188 -393h-238l181 393z" />
    <glyph glyph-name="interrobang" unicode="&#x203d;" horiz-adv-x="909" 
d="M850 1153q0 -149 -129 -311l-115 -144q-28 -35 -41.5 -73t-15.5 -63.5t-2 -76.5v-90h-185l-28 797h217l-8 -231q53 94 53 190q0 77 -42.5 120.5t-113.5 43.5q-76 0 -117.5 -61.5t-41.5 -170.5h-222v39q0 189 103 286t305 97q176 0 279.5 -94.5t103.5 -257.5zM328 242h239
v-242h-239v242z" />
    <glyph glyph-name="fraction" unicode="&#x2044;" horiz-adv-x="342" 
d="M375 1501h133l-545 -1558h-127z" />
    <glyph glyph-name="zero.superior" unicode="&#x2070;" horiz-adv-x="600" 
d="M563 1081v-172q0 -170 -62 -257t-204 -87q-133 0 -196.5 80.5t-63.5 257.5v176q0 182 61 274.5t201 92.5q138 0 201 -84.5t63 -280.5zM360 883v268q0 79 -12 115.5t-49 36.5q-61 0 -61 -152v-283q0 -83 12.5 -119t48.5 -36t48.5 36t12.5 134z" />
    <glyph glyph-name="four.superior" unicode="&#x2074;" horiz-adv-x="600" 
d="M229 1436h250v-516h68v-150h-68v-190h-192v190h-271v184zM182 920h115l8 299q-65 -181 -123 -299z" />
    <glyph glyph-name="five.superior" unicode="&#x2075;" horiz-adv-x="600" 
d="M66 1436h462v-152h-272l-8 -168q48 35 112 35q111 0 155 -73t44 -218q0 -154 -64.5 -224.5t-209.5 -70.5q-242 0 -242 211v23h203q-2 -18 -2 -31q0 -59 55 -59q18 0 29 7.5t20.5 43.5t9.5 104q0 85 -13 116.5t-44 31.5q-27 0 -40 -19t-17 -69h-191z" />
    <glyph glyph-name="six.superior" unicode="&#x2076;" horiz-adv-x="600" 
d="M551 1229h-203q0 44 -9 60t-38 16q-25 0 -38 -11.5t-20 -47t-7 -105.5v-43q34 24 60 32.5t62 8.5q207 0 207 -277q0 -151 -66.5 -224t-203.5 -73q-258 0 -258 301v199q0 199 64 290t216 91q234 0 234 -205v-12zM301 709q38 0 49.5 29.5t11.5 113.5q0 87 -13 116t-50 29
q-35 0 -48 -30t-13 -117q0 -81 13.5 -111t49.5 -30z" />
    <glyph glyph-name="seven.superior" unicode="&#x2077;" horiz-adv-x="600" 
d="M49 1436h490v-148l-213 -708h-224l236 702h-289v154z" />
    <glyph glyph-name="eight.superior" unicode="&#x2078;" horiz-adv-x="600" 
d="M557 1210q0 -71 -21.5 -111t-74.5 -75q56 -36 79 -82t23 -127q0 -250 -272 -250q-134 0 -194 62t-60 188q0 78 21.5 124.5t80.5 86.5q-53 27 -74.5 68.5t-21.5 111.5q0 123 63.5 181.5t194.5 58.5q126 0 191 -59t65 -177zM303 1102q53 0 53 92q0 54 -12.5 80t-42.5 26
q-53 0 -53 -104q0 -51 12 -72.5t43 -21.5zM299 713q34 0 47.5 29t13.5 94q0 112 -61 112t-61 -108q0 -69 13 -98t48 -29z" />
    <glyph glyph-name="nine.superior" unicode="&#x2079;" horiz-adv-x="600" 
d="M561 1034q0 -52 -0.5 -86.5t-3.5 -79.5t-8.5 -74.5t-15.5 -64t-24 -57t-35 -44.5t-47.5 -34.5t-62.5 -20.5t-79 -8q-238 0 -238 211q0 13 2 25h199v-17q0 -20 2 -33t14 -26.5t35 -13.5q37 0 50 38.5t13 147.5v43q-62 -41 -129 -41q-94 0 -146 66t-52 186q0 150 69 222.5
t197 72.5q42 0 76.5 -8.5t59.5 -21.5t45 -36t33 -44.5t22 -54.5t13.5 -58t7 -63.5t3 -62.5t0.5 -63zM299 1040q32 0 46.5 31t14.5 100q0 71 -13.5 101.5t-47.5 30.5q-36 0 -48.5 -32t-12.5 -100q0 -70 13.5 -100.5t47.5 -30.5z" />
    <glyph glyph-name="plus.superior" unicode="&#x207a;" horiz-adv-x="600" 
d="M227 1184h144v-223h207v-144h-207v-223h-144v223h-204v144h204v223z" />
    <glyph glyph-name="minus.superior" unicode="&#x207b;" horiz-adv-x="600" 
d="M25 961h550v-144h-550v144z" />
    <glyph glyph-name="equal.superior" unicode="&#x207c;" horiz-adv-x="600" 
d="M25 1075h550v-141h-550v141zM25 844h550v-144h-550v144z" />
    <glyph glyph-name="parenleft.superior" unicode="&#x207d;" horiz-adv-x="374" 
d="M184 1509h123q-38 -111 -62 -265t-24 -273q0 -103 18 -211t68 -326h-123q-133 353 -133 547q0 206 133 528z" />
    <glyph glyph-name="parenright.superior" unicode="&#x207e;" horiz-adv-x="374" 
d="M68 1509h122q134 -325 134 -528q0 -192 -134 -547h-122q50 218 68 326t18 211q0 119 -24 273t-62 265z" />
    <glyph glyph-name="n.superior" unicode="&#x207f;" horiz-adv-x="614" 
d="M563 1350v-478h-188v424q0 29 -3 47t-18 34t-43 16q-37 0 -56 -25t-19 -68v-428h-187v615h184l3 -64q51 76 153 76q84 0 129 -39.5t45 -109.5z" />
    <glyph glyph-name="zero.inferior" unicode="&#x2080;" horiz-adv-x="600" 
d="M563 502v-172q0 -170 -62 -257t-204 -87q-133 0 -196.5 80.5t-63.5 257.5v176q0 182 61 274t201 92q138 0 201 -84t63 -280zM360 303v268q0 79 -12 115.5t-49 36.5q-61 0 -61 -152v-282q0 -84 12.5 -120t48.5 -36t48.5 36t12.5 134z" />
    <glyph glyph-name="one.inferior" unicode="&#x2081;" horiz-adv-x="600" 
d="M252 856h186v-856h-211v625q-72 -55 -145 -86v186q26 9 48 21.5t42 29.5t30 26.5t29 30t21 23.5z" />
    <glyph glyph-name="two.inferior" unicode="&#x2082;" horiz-adv-x="600" 
d="M553 643q0 -101 -64 -199q-53 -80 -123 -163.5t-118 -130.5h313v-150h-536v164q169 194 231 287q62 91 78 127.5t16 76.5q0 66 -53 66q-57 0 -57 -90v-31h-201q-2 20 -2 51q0 104 70 161.5t190 57.5q122 0 189 -60t67 -167z" />
    <glyph glyph-name="three.inferior" unicode="&#x2083;" horiz-adv-x="600" 
d="M547 635q0 -142 -88 -186q54 -30 76 -76.5t22 -122.5q0 -134 -69 -199t-209 -65q-122 0 -188 51t-66 180v35h202v-10q0 -62 11.5 -84.5t48.5 -22.5q35 0 49 24t14 85q0 77 -21 101t-93 24q-23 0 -41 -2v157h59q51 0 69.5 20t18.5 81q0 56 -12 78t-43 22q-27 0 -39 -21.5
t-12 -74.5v-6h-199q-2 20 -2 43q0 200 252 200q134 0 197 -55.5t63 -175.5z" />
    <glyph glyph-name="four.inferior" unicode="&#x2084;" horiz-adv-x="600" 
d="M229 856h250v-516h68v-150h-68v-190h-192v190h-271v185zM182 340h115l8 299q-65 -181 -123 -299z" />
    <glyph glyph-name="five.inferior" unicode="&#x2085;" horiz-adv-x="600" 
d="M66 856h462v-151h-272l-8 -168q47 34 112 34q111 0 155 -72.5t44 -217.5q0 -154 -64.5 -224.5t-209.5 -70.5q-242 0 -242 211v22h203q-2 -18 -2 -31q0 -59 55 -59q13 0 22 4.5t18 19t14 47.5t5 85q0 84 -13 115.5t-44 31.5q-27 0 -40 -19t-17 -69h-191z" />
    <glyph glyph-name="six.inferior" unicode="&#x2086;" horiz-adv-x="600" 
d="M551 649h-203q0 44 -9 60t-38 16q-25 0 -38 -11.5t-20 -47t-7 -105.5v-43q34 24 60 32.5t62 8.5q207 0 207 -276q0 -151 -66.5 -224t-203.5 -73q-258 0 -258 301v198q0 199 64 290t216 91q234 0 234 -204v-13zM301 129q38 0 49.5 29.5t11.5 113.5q0 87 -13 116.5
t-50 29.5q-35 0 -48 -30.5t-13 -117.5q0 -81 13.5 -111t49.5 -30z" />
    <glyph glyph-name="seven.inferior" unicode="&#x2087;" horiz-adv-x="600" 
d="M49 856h490v-147l-213 -709h-224l236 702h-289v154z" />
    <glyph glyph-name="eight.inferior" unicode="&#x2088;" horiz-adv-x="600" 
d="M557 631q0 -71 -21.5 -111.5t-74.5 -75.5q56 -36 79 -81.5t23 -126.5q0 -250 -272 -250q-134 0 -194 62t-60 188q0 78 21.5 124t80.5 86q-53 27 -74.5 69t-21.5 112q0 122 63.5 180.5t194.5 58.5q256 0 256 -235zM303 522q53 0 53 92q0 54 -12.5 80.5t-42.5 26.5
q-53 0 -53 -105q0 -51 12 -72.5t43 -21.5zM299 133q34 0 47.5 29t13.5 94q0 113 -61 113t-61 -109q0 -69 13 -98t48 -29z" />
    <glyph glyph-name="nine.inferior" unicode="&#x2089;" horiz-adv-x="600" 
d="M561 455q0 -59 -1 -97.5t-5 -87.5t-12 -81t-21 -67.5t-33.5 -57.5t-48.5 -41.5t-67 -28t-88 -8.5q-238 0 -238 211q0 12 2 24h199v-16q0 -74 51 -74q37 0 50 38.5t13 147.5v43q-62 -41 -129 -41q-94 0 -146 66t-52 186q0 150 69 222.5t197 72.5q42 0 76.5 -8.5
t59.5 -21.5t45 -36t33 -44t22 -54t13.5 -58t7 -63.5t3 -62.5t0.5 -63zM299 461q32 0 46.5 31t14.5 100q0 71 -13.5 101t-47.5 30q-36 0 -48.5 -32t-12.5 -99q0 -70 13.5 -100.5t47.5 -30.5z" />
    <glyph glyph-name="plus.inferior" unicode="&#x208a;" horiz-adv-x="600" 
d="M227 604h144v-223h207v-143h-207v-224h-144v224h-204v143h204v223z" />
    <glyph glyph-name="minus.inferior" unicode="&#x208b;" horiz-adv-x="600" 
d="M25 381h550v-143h-550v143z" />
    <glyph glyph-name="equal.inferior" unicode="&#x208c;" horiz-adv-x="600" 
d="M25 496h550v-142h-550v142zM25 264h550v-143h-550v143z" />
    <glyph glyph-name="parenleft.inferior" unicode="&#x208d;" horiz-adv-x="374" 
d="M184 930h123q-38 -110 -62 -265t-24 -274q0 -102 18 -209.5t68 -326.5h-123q-133 353 -133 546q0 207 133 529z" />
    <glyph glyph-name="parenright.inferior" unicode="&#x208e;" horiz-adv-x="374" 
d="M68 930h122q134 -325 134 -529q0 -191 -134 -546h-122q50 219 68 326.5t18 209.5q0 119 -24 274t-62 265z" />
    <glyph glyph-name="Euro" unicode="&#x20ac;" horiz-adv-x="909" 
d="M887 1071h-252q0 85 -27 120.5t-94 35.5q-77 0 -104 -48.5t-27 -154.5v-72h328l-39 -170h-291v-153h256l-39 -172h-215v-60q0 -118 29 -164.5t108 -46.5q70 0 95.5 36t25.5 122v4h248q0 -194 -89 -283.5t-290 -89.5q-218 0 -307.5 98t-89.5 324v60h-103l39 172h62v153
h-101l39 170h66v39q0 234 97.5 346.5t299.5 112.5q198 0 286.5 -89t88.5 -290z" />
    <glyph glyph-name="uni20B9" unicode="&#x20b9;" horiz-adv-x="909" 
d="M903 948h-168q-6 -165 -104 -252.5t-269 -87.5l410 -608h-321l-392 616v172h150q59 0 96.5 5.5t71 21.5t49 49t16.5 84h-383v170h379q-10 82 -60 113t-136 31h-181v170h842v-170h-231q40 -49 59 -144h172v-170z" />
    <glyph glyph-name="uni20BA" unicode="&#x20ba;" horiz-adv-x="909" 
d="M410 1430v-216l292 142v-185l-292 -141v-143l292 141v-184l-292 -142v-493h20q27 0 50 8.5t40 26t31 37t23.5 50.5t16.5 56.5t11 64t7 64.5t4 67.5t1 62.5v59v14h273q0 -130 -14 -233t-49.5 -196.5t-92.5 -155.5t-147.5 -98t-210.5 -36h-252v565l-115 -55v184l115 56v143
l-115 -55v184l115 55v353h289z" />
    <glyph glyph-name="uni20BC" unicode="&#x20bc;" horiz-adv-x="1288" 
d="M791 1018v-875h-285v875q-39 -10 -69 -38.5t-48 -72.5t-29.5 -87.5t-16 -103.5t-6 -100t-1.5 -96v-520h-281v520q0 121 11 213.5t41 180.5t80 148t131 102t192 57v209h281v-209q93 -13 164.5 -43t120 -78t81.5 -106.5t51 -136.5t25.5 -157.5t7.5 -179.5v-520h-280v520
q0 56 -1.5 96t-6 100t-16 103.5t-29.5 87.5t-48 72.5t-69 38.5z" />
    <glyph glyph-name="uni20BD" unicode="&#x20bd;" horiz-adv-x="909" 
d="M23 623v202h124v605h365q111 0 185 -19.5t123.5 -66.5t71 -124t21.5 -194q0 -222 -97.5 -312.5t-307.5 -90.5h-78v-115h268v-203h-268v-305h-283v305h-124v203h124v115h-124zM430 825h39q101 0 138.5 46.5t37.5 154.5q0 112 -36 156.5t-140 44.5h-39v-402z" />
    <glyph glyph-name="afii61248" unicode="&#x2105;" horiz-adv-x="1544" 
d="M633 1270h-180l-2 35q-3 45 -19.5 66.5t-54.5 21.5q-19 0 -34 -5.5t-24.5 -13t-16 -24.5t-10 -30t-5 -40t-2 -44t-0.5 -52q0 -45 0.5 -65.5t2.5 -51.5t7.5 -44.5t14.5 -29t23.5 -21t35.5 -5.5q46 0 66 29t20 89v11h180v-13q0 -227 -273 -227q-55 0 -98.5 12t-71 28.5
t-47 46.5t-29 53.5t-14.5 63.5t-5.5 62t-0.5 62q0 37 1 60.5t6.5 61t15.5 61.5t30 52.5t48.5 44.5t72 27.5t99.5 11.5q264 0 264 -215v-18zM948 1501h133l-544 -1558h-127zM1438 317q0 -83 -10 -138.5t-38.5 -102t-84.5 -68.5t-142 -22q-70 0 -120 16t-79.5 42.5t-46.5 70.5
t-22.5 90.5t-5.5 111.5q0 59 4.5 100.5t21 85t45.5 70t80 43.5t123 17q71 0 121.5 -16.5t80 -43t46.5 -69t22 -85.5t5 -102zM1163 96q53 0 69.5 46.5t16.5 185.5q0 110 -15.5 152t-72.5 42q-54 0 -69 -43t-15 -151q0 -141 17 -186.5t69 -45.5z" />
    <glyph glyph-name="afii61289" unicode="&#x2113;" horiz-adv-x="1122" 
d="M922 1073q0 -157 -88.5 -298t-321.5 -335v-24q0 -47 11.5 -86t46 -69t89.5 -30q27 0 60 8.5t86.5 43.5t97.5 92l139 -135q-75 -127 -189 -193.5t-255 -66.5q-90 0 -156.5 22.5t-108 65t-65.5 94t-37 119.5q-54 -38 -96 -64l-80 162q142 101 168 121v395q0 251 98.5 384.5
t282.5 133.5q146 0 232 -93t86 -247zM512 975v-264q89 97 133.5 182.5t44.5 175.5q0 71 -22 109.5t-60 38.5q-44 0 -70 -65.5t-26 -176.5z" />
    <glyph glyph-name="afii61352" unicode="&#x2116;" horiz-adv-x="1933" 
d="M117 1432h377l352 -977h4v977h289v-1432h-367l-362 1034h-4v-1034h-289v1432zM1821 633q0 -65 -5.5 -111.5t-22.5 -90.5t-47 -71t-80 -43t-120 -16q-69 0 -119 15.5t-79.5 42t-47 70.5t-23 91t-5.5 113q0 59 4.5 100.5t21 85t45.5 69.5t80 43t123 17t123 -17t80 -43.5
t45.5 -70t21.5 -85t5 -99.5zM1546 428q48 0 63 40.5t15 172.5q0 104 -14 142t-66 38q-22 0 -36.5 -9t-22.5 -21.5t-11.5 -39t-4.5 -48t-1 -62.5q0 -132 14.5 -172.5t63.5 -40.5zM1270 184h553v-184h-553v184z" />
    <glyph glyph-name="published" unicode="&#x2117;" horiz-adv-x="1638" 
d="M545 1192h348q147 0 215 -63.5t68 -202.5q0 -75 -21 -126.5t-62 -79t-91 -39t-119 -11.5h-140v-361h-198v883zM743 1057v-252h107q133 0 133 123q0 76 -36.5 102.5t-119.5 26.5h-84zM1591 745q0 -155 -60 -297t-162 -246.5t-246 -166.5t-304 -62q-158 0 -301.5 61.5
t-247 165t-164.5 246.5t-61 299t60.5 299t164 247t247 165.5t302.5 61.5q158 0 301 -61.5t246 -165t164 -246.5t61 -300zM819 119q170 0 313.5 85t225.5 228.5t82 310.5q0 168 -82 312.5t-226 230.5t-315 86q-168 0 -311 -85t-226 -229.5t-83 -312.5q0 -126 49 -241.5
t132.5 -200t198.5 -134.5t242 -50z" />
    <glyph glyph-name="trademark" unicode="&#x2122;" horiz-adv-x="1761" 
d="M29 1479h616v-123h-227v-606h-160v606h-229v123zM760 1479h235l172 -492l174 492h232v-729h-143v587l-203 -587h-121l-203 587v-587h-143v729z" />
    <glyph glyph-name="Omega" unicode="&#x2126;" horiz-adv-x="1251" 
d="M1141 885q0 -79 -3.5 -137t-15.5 -123.5t-32.5 -114.5t-57.5 -95t-88 -79v-88h189v-248h-418v496q112 68 112 295l-2 186q-1 62 -5.5 107t-17 87t-34 68t-56.5 41.5t-83 15.5q-112 0 -157.5 -75t-47.5 -238q-2 -123 -2 -195q0 -227 113 -292v-496h-418v248h188v88
q-44 28 -77.5 65t-54.5 82t-34.5 90t-19.5 103t-8 105t-2 112q0 57 1 96t6.5 95.5t15 96t28 88t44.5 82t65 67.5t89 54t118 33t149 13q106 0 189 -22.5t136.5 -54t91.5 -88.5t57 -103.5t29 -121.5t11.5 -120.5t1.5 -122.5z" />
    <glyph glyph-name="estimated" unicode="&#x212e;" horiz-adv-x="2033" 
d="M1872 723h-1387q-12 0 -12 -10v-396q0 -46 16 -65q85 -106 219.5 -163.5t301.5 -57.5q172 0 305.5 62.5t255.5 178.5h151q-89 -105 -181 -168t-221.5 -97t-303.5 -34q-199 0 -363 61.5t-271 165.5t-165.5 240t-58.5 287q0 153 59.5 295t167 252.5t271 177t356.5 66.5
q138 0 256 -25t204.5 -68t155.5 -104.5t114 -130.5t75 -149t42.5 -158t12.5 -160zM1559 780v404q0 28 -23 55q-52 65 -121.5 111.5t-142.5 70t-138 33.5t-128 10q-136 0 -270.5 -54t-241.5 -165q-21 -21 -21 -59v-406q0 -12 12 -12h1061q13 0 13 12z" />
    <glyph glyph-name="onethird" unicode="&#x2153;" horiz-adv-x="1544" 
d="M244 1436h186v-856h-211v624q-72 -55 -145 -86v187q26 9 48 21.5t42 29.5t30 26.5t29 30t21 23.5zM975 1501h133l-545 -1558h-127zM1491 635q0 -142 -88 -186q54 -30 76 -76.5t22 -122.5q0 -134 -69 -199t-209 -65q-122 0 -188 51t-66 180v35h202v-10q0 -62 11.5 -84.5
t48.5 -22.5q35 0 49 24t14 85q0 77 -21 101t-93 24q-23 0 -41 -2v157h59q51 0 69.5 20t18.5 81q0 56 -12 78t-43 22q-27 0 -39 -21.5t-12 -74.5v-6h-199q-2 20 -2 43q0 200 252 200q134 0 197 -55.5t63 -175.5z" />
    <glyph glyph-name="twothirds" unicode="&#x2154;" horiz-adv-x="1544" 
d="M973 1501h133l-545 -1558h-127zM1491 635q0 -142 -88 -186q54 -30 76 -76.5t22 -122.5q0 -134 -69 -199t-209 -65q-122 0 -188 51t-66 180v35h202v-10q0 -62 11.5 -84.5t48.5 -22.5q35 0 49 24t14 85q0 77 -21 101t-93 24q-23 0 -41 -2v157h59q51 0 69.5 20t18.5 81
q0 56 -12 78t-43 22q-27 0 -39 -21.5t-12 -74.5v-6h-199q-2 20 -2 43q0 200 252 200q134 0 197 -55.5t63 -175.5zM553 1223q0 -101 -64 -199q-53 -80 -123 -164.5t-118 -130.5h313v-149h-536v163q169 194 231 287q62 91 78 128t16 77q0 65 -53 65q-57 0 -57 -90v-30h-201
q-2 20 -2 51q0 104 70 161.5t190 57.5q122 0 189 -60t67 -167z" />
    <glyph glyph-name="oneeighth" unicode="&#x215b;" horiz-adv-x="1544" 
d="M252 1436h186v-856h-211v624q-72 -55 -145 -86v187q26 9 48 21.5t42 29.5t30 26.5t29 30t21 23.5zM954 1501h133l-544 -1558h-127zM1489 631q0 -71 -21.5 -111.5t-74.5 -75.5q56 -36 79 -81.5t23 -126.5q0 -250 -272 -250q-134 0 -194 62t-60 188q0 78 21.5 124t80.5 86
q-53 27 -74.5 69t-21.5 112q0 122 63.5 180.5t194.5 58.5q256 0 256 -235zM1235 522q53 0 53 92q0 54 -12.5 80.5t-42.5 26.5q-53 0 -53 -105q0 -51 12 -72.5t43 -21.5zM1231 133q34 0 47.5 29t13.5 94q0 113 -61 113q-62 0 -62 -109q0 -69 13.5 -98t48.5 -29z" />
    <glyph glyph-name="threeeighths" unicode="&#x215c;" horiz-adv-x="1544" 
d="M547 1214q0 -142 -88 -186q54 -30 76 -76.5t22 -122.5q0 -134 -69 -199t-209 -65q-122 0 -188 51.5t-66 180.5v34h202v-10q0 -62 11.5 -84t48.5 -22q35 0 49 23.5t14 84.5q0 77 -21 101t-93 24q-23 0 -41 -2v158h59q51 0 69.5 19.5t18.5 80.5q0 56 -12 78.5t-43 22.5
q-27 0 -39 -22t-12 -75v-6h-199q-2 20 -2 43q0 201 252 201q134 0 197 -56t63 -176zM963 1501h133l-545 -1558h-127zM1495 631q0 -71 -21.5 -111.5t-74.5 -75.5q56 -36 79 -81.5t23 -126.5q0 -250 -272 -250q-134 0 -194 62t-60 188q0 78 21.5 124t80.5 86q-53 27 -74.5 69
t-21.5 112q0 122 63.5 180.5t194.5 58.5q256 0 256 -235zM1241 522q53 0 53 92q0 54 -12.5 80.5t-42.5 26.5q-53 0 -53 -105q0 -51 12 -72.5t43 -21.5zM1237 133q34 0 47.5 29t13.5 94q0 113 -61 113t-61 -109q0 -69 13 -98t48 -29z" />
    <glyph glyph-name="fiveeighths" unicode="&#x215d;" horiz-adv-x="1544" 
d="M49 1436h463v-152h-272l-9 -168q48 35 113 35q111 0 155 -73t44 -218q0 -153 -65 -224t-210 -71q-241 0 -241 211v23h202q-2 -18 -2 -31q0 -59 56 -59q18 0 29 7.5t20.5 43.5t9.5 104q0 85 -13 116.5t-44 31.5q-27 0 -40.5 -19t-17.5 -69h-190zM954 1501h133l-544 -1558
h-127zM1485 631q0 -71 -21.5 -111.5t-74.5 -75.5q56 -36 79 -81.5t23 -126.5q0 -250 -272 -250q-134 0 -194 62t-60 188q0 78 21.5 124t80.5 86q-53 27 -74.5 69t-21.5 112q0 122 63.5 180.5t194.5 58.5q256 0 256 -235zM1231 522q53 0 53 92q0 54 -12.5 80.5t-42.5 26.5
q-53 0 -53 -105q0 -51 12 -72.5t43 -21.5zM1227 133q34 0 47.5 29t13.5 94q0 113 -61 113q-62 0 -62 -109q0 -69 13.5 -98t48.5 -29z" />
    <glyph glyph-name="seveneighths" unicode="&#x215e;" horiz-adv-x="1544" 
d="M117 1436h489v-148l-213 -708h-223l236 702h-289v154zM940 1501h133l-545 -1558h-127zM1491 631q0 -71 -21.5 -111.5t-74.5 -75.5q56 -36 79 -81.5t23 -126.5q0 -250 -272 -250q-134 0 -194 62t-60 188q0 78 21.5 124t80.5 86q-53 27 -74.5 69t-21.5 112
q0 122 63.5 180.5t194.5 58.5q256 0 256 -235zM1237 522q53 0 53 92q0 54 -12.5 80.5t-42.5 26.5q-53 0 -53 -105q0 -51 12 -72.5t43 -21.5zM1233 133q34 0 47.5 29t13.5 94q0 113 -61 113q-62 0 -62 -109q0 -69 13.5 -98t48.5 -29z" />
    <glyph glyph-name="partialdiff" unicode="&#x2202;" horiz-adv-x="1177" 
d="M1094 766q0 -189 -46 -340.5t-125.5 -248.5t-185 -148.5t-227.5 -51.5q-104 0 -188.5 36.5t-137.5 99t-81.5 143t-28.5 170.5q0 214 126.5 358t327.5 144q101 0 184 -41t130 -117v47q0 144 -45.5 267t-129.5 197.5t-188 74.5q-162 0 -278 -76l-76 174q171 113 387 113
q121 0 228.5 -60.5t185 -165.5t123 -254.5t45.5 -320.5zM535 186q107 0 186 108.5t94 272.5q-25 73 -86.5 116.5t-144.5 43.5q-111 0 -181.5 -86.5t-70.5 -216.5q0 -116 54.5 -177t148.5 -61z" />
    <glyph glyph-name="Delta" unicode="&#x2206;" horiz-adv-x="1277" 
d="M426 1479h387l465 -1479h-1278zM621 1159l-238 -895h498z" />
    <glyph glyph-name="product" unicode="&#x220f;" horiz-adv-x="1509" 
d="M131 1563h1247v-1829h-258v1607h-731v-1607h-258v1829z" />
    <glyph glyph-name="summation" unicode="&#x2211;" horiz-adv-x="1316" 
d="M57 1563h1192v-222h-854v-6q65 -122 193 -351.5t184 -332.5l-399 -688v-10h932v-219h-1274v151l448 754l-422 743v181z" />
    <glyph glyph-name="minus" unicode="&#x2212;" 
d="M51 631h922v-228h-922v228z" />
    <glyph glyph-name="uni2215" unicode="&#x2215;" horiz-adv-x="342" 
d="M375 1501h133l-545 -1558h-127z" />
    <glyph glyph-name="uni2219" unicode="&#x2219;" horiz-adv-x="454" 
d="M106 741h240v-270h-240v270z" />
    <glyph glyph-name="radical" unicode="&#x221a;" horiz-adv-x="1171" 
d="M981 1638h217l-448 -1822h-224l-161 428q-91 238 -154 401l-154 -57l-45 133l353 141l208 -586q29 -84 50 -178h4q6 41 17 96.5t22 103t35.5 150t41.5 177.5z" />
    <glyph glyph-name="infinity" unicode="&#x221e;" horiz-adv-x="1579" 
d="M793 680q116 116 203 158.5t180 42.5q145 0 235 -96.5t90 -241.5q0 -142 -97 -242t-247 -100q-87 0 -174 47t-195 155q-116 -116 -200 -159t-182 -43q-145 0 -235.5 97t-90.5 245q0 141 97 239.5t245 98.5q87 0 173.5 -46t197.5 -155zM422 385q53 0 111 36t137 120
l-64 61q-96 96 -180 96q-63 0 -107.5 -46t-44.5 -109q0 -67 42.5 -112.5t105.5 -45.5zM911 545l62 -62q98 -98 182 -98q61 0 105.5 46.5t44.5 111.5q0 66 -40.5 110.5t-105.5 44.5q-55 0 -114 -37.5t-134 -115.5z" />
    <glyph glyph-name="integral" unicode="&#x222b;" horiz-adv-x="757" 
d="M741 1567l-30 -187q-42 11 -70 11q-86 0 -117.5 -78.5t-31.5 -292.5q0 -135 15 -373t15 -383q0 -300 -88 -440.5t-266 -140.5q-100 0 -152 24l33 189q46 -11 80 -11q81 0 116.5 81.5t35.5 256.5q0 160 -15.5 420.5t-15.5 392.5q0 279 92.5 412t275.5 133q79 0 123 -14z
" />
    <glyph glyph-name="approxequal" unicode="&#x2248;" 
d="M530 825q149 -67 205 -67q45 0 71.5 29t37.5 104h145q-18 -182 -88.5 -267t-193.5 -85q-35 0 -82.5 14.5t-81 30t-109.5 51.5q-95 45 -145 45q-87 0 -111 -139h-145q34 352 276 352q69 0 221 -68zM530 428q151 -68 205 -68q45 0 71 29.5t38 104.5h145
q-18 -182 -88.5 -267.5t-193.5 -85.5q-35 0 -83.5 15.5t-79 29.5t-110.5 52q-95 45 -145 45q-87 0 -111 -140h-145q17 177 87.5 265t188.5 88q69 0 221 -68z" />
    <glyph glyph-name="notequal" unicode="&#x2260;" 
d="M696 1128l195 -96l-107 -209h187v-223h-299l-84 -164h383v-223h-496l-156 -305l-192 98l106 207h-182v223h295l82 164h-377v223h492z" />
    <glyph glyph-name="lessequal" unicode="&#x2264;" 
d="M971 1094v-232l-619 -190l619 -183v-231l-920 303v221zM51 145h920v-219h-920v219z" />
    <glyph glyph-name="greaterequal" unicode="&#x2265;" 
d="M51 1094l920 -312v-221l-920 -303v231l619 183l-619 190v232zM51 145h920v-219h-920v219z" />
    <glyph glyph-name="lozenge" unicode="&#x25ca;" horiz-adv-x="1204" 
d="M489 1427h224l399 -759l-399 -744h-224l-397 744zM600 1210h-4q-2 -12 -16 -39l-246 -497l227 -447q37 -75 41 -86h6q17 39 39 82l223 439l-243 489q-19 39 -27 59z" />
    <glyph glyph-name="f_i" unicode="&#xf001;" 
d="M559 1485l-4 -185q-21 3 -25 3q-25 0 -44 -6.5t-31.5 -15.5t-21 -26t-12.5 -29t-6.5 -34.5t-2.5 -33.5v-34v-90h141v-176h-141v-858h-283v858h-129v176h129v174q0 87 20.5 143t66 86t103 41t144.5 11q10 0 22 -0.5t32.5 -1.5t41.5 -2zM621 1479h288v-234h-288v234z
M621 1034h288v-1034h-288v1034z" />
    <glyph glyph-name="f_l" unicode="&#xf002;" 
d="M559 1485l-4 -185q-21 3 -25 3q-25 0 -44 -6.5t-31.5 -15.5t-21 -26t-12.5 -29t-6.5 -34.5t-2.5 -33.5v-34v-90h141v-176h-141v-858h-283v858h-129v176h129v174q0 87 20.5 143t66 86t103 41t144.5 11q10 0 22 -0.5t32.5 -1.5t41.5 -2zM621 1479h288v-1479h-288v1479z" />
    <glyph glyph-name="uniF8FF" unicode="&#xf8ff;" horiz-adv-x="1048" 
d="M0 1470h1049v-1470h-1049v1470zM102 102h844v1264h-844v-1264zM784 979q0 -46 -10.5 -83t-32 -67t-41 -50.5t-52 -50.5t-50.5 -50q-22 -25 -31.5 -53t-9.5 -82v-66h-100v80q0 59 23 109.5t55.5 85.5t65.5 68t56 71.5t23 79.5q0 73 -46 123.5t-110 50.5q-67 0 -112 -47.5
t-56 -147.5l-102 17q13 142 87 211t189 69q112 0 183 -73.5t71 -194.5zM444 240v137h125v-137h-125z" />
    <glyph glyph-name="grave.cap" horiz-adv-x="569" 
d="M0 1923h276l185 -293h-133z" />
    <glyph glyph-name="acute.cap" horiz-adv-x="569" 
d="M293 1923h276l-327 -293h-133z" />
    <glyph glyph-name="circumflex.cap" horiz-adv-x="569" 
d="M168 1923h227l221 -293h-190l-143 182l-146 -182h-186z" />
    <glyph glyph-name="caron.cap" horiz-adv-x="569" 
d="M-49 1923h186l146 -182l143 182h190l-221 -293h-227z" />
    <glyph glyph-name="caron.alt" horiz-adv-x="454" 
d="M135 1479h252l-180 -293h-135z" />
    <glyph glyph-name="tilde.cap" horiz-adv-x="569" 
d="M518 1892h125q-18 -117 -80.5 -187.5t-132.5 -70.5q-56 0 -109.5 22.5t-103 45t-96.5 22.5q-62 0 -80 -90h-121q16 110 74 184t139 74q43 0 100.5 -24.5t109.5 -49t81 -24.5q84 0 94 98z" />
    <glyph glyph-name="dieresis.cap" horiz-adv-x="569" 
d="M-10 1874h227v-221h-227v221zM352 1874h228v-221h-228v221z" />
    <glyph glyph-name="macron.cap" horiz-adv-x="569" 
d="M-12 1831h592v-148h-592v148z" />
    <glyph glyph-name="breve.cap" horiz-adv-x="569" 
d="M-45 1923h117q28 -151 219 -151q172 0 207 151h116q-13 -141 -104 -220t-236 -79q-141 0 -225.5 78.5t-93.5 220.5z" />
    <glyph glyph-name="ring.cap" horiz-adv-x="569" 
d="M498 1772q0 -87 -62 -150t-151 -63t-151 63t-62 150t63 150t150 63q89 0 151 -64t62 -149zM285 1651q51 0 86 35.5t35 85.5q0 48 -35.5 84t-85.5 36q-51 0 -86 -35t-35 -85t34.5 -85.5t86.5 -35.5z" />
    <glyph glyph-name="hungarumlaut.cap" horiz-adv-x="911" 
d="M293 1923h276l-327 -293h-133zM635 1923h276l-327 -293h-133z" />
    <glyph glyph-name="dotaccent.cap" horiz-adv-x="569" 
d="M170 1874h227v-221h-227v221z" />
    <glyph glyph-name="commaaccent" horiz-adv-x="454" 
d="M100 -102h262l-241 -293h-135z" />
    <glyph glyph-name="commaaccent.alt" horiz-adv-x="454" 
d="M258 1479h135l-114 -293h-263z" />
    </font>
</defs>
</svg>
