<?xml version="1.0" standalone="no"?>
<!DOCTYPE svg PUBLIC "-//W3C//DTD SVG 1.1//EN" "http://www.w3.org/Graphics/SVG/1.1/DTD/svg11.dtd" >
<svg xmlns="http://www.w3.org/2000/svg" xmlns:xlink="http://www.w3.org/1999/xlink" version="1.1">
<metadata>
Created by FontForge 20201107 at Wed Oct 18 04:00:00 2000
 By 
Copyright 2000 Agfa Monotype Corporation. All Rights Reserved.
</metadata>
<defs>
<font id="Univers-Condensed" horiz-adv-x="1024" >
  <font-face 
    font-family="Univers 57 Condensed"
    font-weight="400"
    font-stretch="condensed"
    units-per-em="2048"
    panose-1="2 11 6 6 2 2 2 6 2 4"
    ascent="1638"
    descent="-410"
    x-height="1040"
    cap-height="1663"
    bbox="-336 -544 2048 2066"
    underline-thickness="102"
    underline-position="-256"
    unicode-range="U+0020-FB02"
  />
<missing-glyph horiz-adv-x="1022" 
d="M76 0v1109h870v-1109h-870zM332 256h358v597h-358v-597z" />
    <glyph glyph-name=".notdef" horiz-adv-x="1022" 
d="M76 0v1109h870v-1109h-870zM332 256h358v597h-358v-597z" />
    <glyph glyph-name=".null" horiz-adv-x="0" 
 />
    <glyph glyph-name="nonmarkingreturn" horiz-adv-x="455" 
 />
    <glyph glyph-name="space" unicode=" " horiz-adv-x="455" 
 />
    <glyph glyph-name="space" unicode="&#xa0;" horiz-adv-x="455" 
 />
    <glyph glyph-name="exclam" unicode="!" horiz-adv-x="682" 
d="M271 343l-39 1129v0h223v0l-39 -1129h-145zM247 0v213h193v-213h-193z" />
    <glyph glyph-name="quotedbl" unicode="&#x22;" horiz-adv-x="512" 
d="M315 1472h123v-416h-123v416zM69 1472h123v-416h-123v416z" />
    <glyph glyph-name="numbersign" unicode="#" horiz-adv-x="909" 
d="M-9 480l36 114h202v0l75 240v0h-205l36 114h203v0l147 476v0v0h107l-147 -476v0h165v0l147 476h107l-147 -476v0h207l-36 -114h-205v0l-75 -240v0h211l-36 -114h-209v0l-147 -480h-107l147 480v0h-165v0l-147 -480v0v0h-107v0l147 480v0h-204zM336 594v0h165v0l75 240v0
h-165v0z" />
    <glyph glyph-name="dollar" unicode="$" horiz-adv-x="909" 
d="M9 434h199q0 -274 205 -300v516q-199 95 -284 183q-84 88 -84 231q0 152 100 262q101 111 268 120v0v128h89v-125q397 -9 397 -419h-199q0 238 -198 252v-470v0l43 -23q210 -103 283 -201q74 -98 74 -223q0 -166 -101 -276q-101 -109 -299 -119v-128h-89v128v0
q-187 0 -296 106q-108 107 -108 303v55zM502 610v-476q92 8 150 69q59 61 59 152q0 84 -53 139q-52 56 -156 116zM413 1282q-177 -37 -177 -205q0 -136 177 -225v430z" />
    <glyph glyph-name="percent" unicode="%" horiz-adv-x="1593" 
d="M384 -74l704 1632h128l-704 -1632h-128zM929 388q0 189 60 278q61 90 204 90q137 0 200 -86t63 -286q0 -264 -67 -339t-194 -75q-149 0 -207 83q-57 83 -59 232v103zM1072 359q0 -186 29 -231q29 -44 92 -44q66 0 93 43t27 225q0 177 -26 233q-25 57 -95 57
q-71 0 -96 -50q-24 -50 -24 -233zM144 1145q0 189 60 278q61 90 204 90q137 0 200 -86t63 -286q0 -251 -59 -333q-59 -81 -202 -81t-205 81q-61 82 -61 274v63zM287 1116q0 -180 28 -228q28 -47 93 -47q61 0 90 44q30 45 30 224q0 184 -28 237q-27 53 -93 53q-71 0 -96 -50
q-24 -50 -24 -233z" />
    <glyph glyph-name="ampersand" unicode="&#x26;" horiz-adv-x="1366" 
d="M437 838v0q-194 223 -194 371q0 138 94 216q95 78 270 78v0q162 0 251 -80q90 -79 90 -219q0 -185 -243 -384v0l294 -373v0q33 98 33 254v166h168q0 -412 -92 -555v0l236 -312h-214l-118 152v0q-86 -101 -183 -142t-238 -41q-212 0 -346 108q-134 109 -134 313
q0 274 326 448zM542 730v0q-155 -104 -197 -177q-41 -72 -41 -155q0 -122 85 -196t218 -74q198 0 304 146v0zM598 934v0q157 146 157 256q0 170 -157 170q-69 0 -116 -46q-46 -45 -46 -120q0 -63 66 -145q67 -81 96 -115z" />
    <glyph glyph-name="quotesingle" unicode="'" horiz-adv-x="512" 
d="M192 1472h123v-416h-123v416z" />
    <glyph glyph-name="parenleft" unicode="(" horiz-adv-x="569" 
d="M308 1540q-109 -354 -153 -527q-45 -173 -45 -369q0 -235 62 -440q61 -205 136 -443h117q-122 539 -122 869q0 366 128 910h-123z" />
    <glyph glyph-name="parenright" unicode=")" horiz-adv-x="569" 
d="M261 1540q109 -354 153 -527q45 -173 45 -369q0 -235 -62 -440q-61 -205 -136 -443h-117q122 539 122 869q0 366 -128 910h123z" />
    <glyph glyph-name="asterisk" unicode="*" horiz-adv-x="909" 
d="M64 1199l320 -32l-183 269l117 67l135 -293v0l135 293l117 -67l-183 -269l320 32v-141l-320 32l183 -269l-117 -67l-132 301v0l-138 -301l-117 67l183 269l-320 -32v141z" />
    <glyph glyph-name="plus" unicode="+" 
d="M96 580h368v448h127v-448h368v-127h-368v-448h-127v448h-368v127z" />
    <glyph glyph-name="comma" unicode="," horiz-adv-x="455" 
d="M64 -263l108 480h208l-184 -480h-132z" />
    <glyph glyph-name="glyph14" unicode="-" horiz-adv-x="682" 
d="M112 638h448v-156h-448v156z" />
    <glyph glyph-name="period" unicode="." horiz-adv-x="455" 
d="M132 213h193v-213h-193v213z" />
    <glyph glyph-name="slash" unicode="/" horiz-adv-x="569" 
d="M-48 -192l486 1664h138l-486 -1664h-138z" />
    <glyph glyph-name="zero" unicode="0" horiz-adv-x="909" 
d="M71 754v137q0 295 91 425t295 130q186 0 280 -126q95 -125 101 -504v-68v-128q0 -410 -100 -530t-281 -120q-198 0 -292 128q-94 129 -94 527v129zM262 699v-98q0 -286 46 -378q47 -91 147 -91q96 0 144 85t48 381v92v0v132q0 276 -44 369t-149 93t-149 -108
q-43 -107 -43 -354v-123v0z" />
    <glyph glyph-name="one" unicode="1" horiz-adv-x="909" 
d="M192 1251q79 37 238 173h161v-1424h-191v1216l-208 -144v179z" />
    <glyph glyph-name="two" unicode="2" horiz-adv-x="909" 
d="M89 164q173 239 351 491t178 437q0 192 -173 192q-162 0 -162 -222v0h-191v66q0 135 92 226q92 92 258 92q182 0 274 -93q93 -92 93 -278q0 -157 -90 -322q-90 -164 -431 -591v0h557v-162h-756v164z" />
    <glyph glyph-name="three" unicode="3" horiz-adv-x="909" 
d="M51 386h191v0q0 -136 43 -195t147 -59q211 0 211 256q0 148 -62 210q-61 62 -242 62v0v165q36 -3 47 -3q242 0 242 235q0 227 -188 227q-96 0 -135 -53t-39 -169h-191v63q0 147 92 234q93 87 274 87q378 0 378 -371q0 -278 -286 -333q184 -29 242 -121q59 -92 59 -241
q0 -410 -413 -410q-370 0 -370 349v67v0z" />
    <glyph glyph-name="four" unicode="4" horiz-adv-x="909" 
d="M51 513l406 911h250v-913h167v-162h-167v-349h-176v349h-480v164zM215 511v0h316v749v0z" />
    <glyph glyph-name="five" unicode="5" horiz-adv-x="909" 
d="M101 322h191v0q0 -216 159 -216q107 0 147 79q40 80 40 238q0 202 -36 283q-36 82 -140 82q-147 0 -170 -158h-170v794h656v-162h-468v1v-427q59 114 229 114q142 0 216 -113t74 -381q0 -249 -94 -368q-93 -118 -273 -118q-189 0 -275 77q-86 78 -86 275v0z" />
    <glyph glyph-name="six" unicode="6" horiz-adv-x="909" 
d="M265 793q24 48 86 93q63 46 157 46q333 0 333 -481q0 -235 -103 -358q-102 -123 -269 -123q-210 0 -303 134q-92 134 -92 517v231q0 338 94 466t293 128q162 0 257 -94q96 -93 96 -223v-35h-191q0 92 -47 154q-46 62 -117 62q-115 0 -155 -112q-39 -111 -39 -405z
M268 461q0 -329 200 -329q99 0 140 85q42 86 42 269q0 284 -192 284q-190 0 -190 -309z" />
    <glyph glyph-name="seven" unicode="7" horiz-adv-x="909" 
d="M207 0l400 1262v0h-543v162h736v-167l-379 -1257h-214z" />
    <glyph glyph-name="eight" unicode="8" horiz-adv-x="909" 
d="M355 753q-109 7 -187 99q-78 93 -78 234q0 156 92 258q93 102 276 102q164 0 265 -93q102 -93 102 -269q0 -146 -71 -228q-70 -81 -182 -101q137 -20 203 -105t66 -272q0 -189 -96 -299q-96 -109 -285 -109q-177 0 -282 102q-104 103 -104 308q0 173 68 267
q68 95 213 106zM265 393q0 -261 194 -261q191 0 191 261q0 282 -193 282q-192 0 -192 -282zM281 1096q0 -121 46 -190t131 -69t130 63q46 63 46 196q0 88 -45 151q-44 63 -130 63q-85 0 -132 -62q-46 -62 -46 -152z" />
    <glyph glyph-name="nine" unicode="9" horiz-adv-x="909" 
d="M104 338h191q0 -94 43 -150t116 -56q116 0 156 117q40 118 40 451q-68 -142 -248 -142q-150 0 -239 114q-89 115 -89 337q0 220 109 328q109 109 277 109q208 0 294 -139q87 -138 87 -461v-240q0 -359 -95 -498q-95 -138 -288 -138q-165 0 -260 100q-94 101 -94 268z
M265 1008q0 -288 189 -288q187 0 187 286q0 304 -187 304q-189 0 -189 -302z" />
    <glyph glyph-name="colon" unicode=":" horiz-adv-x="455" 
d="M132 1034h193v-213h-193v213zM132 213h193v-213h-193v213z" />
    <glyph glyph-name="semicolon" unicode=";" horiz-adv-x="455" 
d="M64 -263l108 480h208l-184 -480h-132zM132 1034h193v-213h-193v213z" />
    <glyph glyph-name="less" unicode="&#x3c;" 
d="M941 1046l-848 -464v-131l848 -480v149l-689 396v0l689 381v149z" />
    <glyph glyph-name="equal" unicode="=" 
d="M96 387h848v-127h-848v127zM96 786h848v-127h-848v127z" />
    <glyph glyph-name="greater" unicode="&#x3e;" 
d="M83 1046l848 -464v-131l-848 -480v149l689 396v0l-689 381v149z" />
    <glyph glyph-name="question" unicode="?" horiz-adv-x="909" 
d="M352 213h193v-213h-193v213zM111 1080v36q0 387 358 387q155 0 243 -93q88 -92 88 -247v0q0 -183 -97 -315q-63 -90 -117 -158t-54 -166v-151h-168v225q0 81 65 172q66 91 95 141q83 136 83 254q0 81 -41 141q-40 61 -108 61q-154 0 -154 -244v-43h-193z" />
    <glyph glyph-name="at" unicode="@" horiz-adv-x="1614" 
d="M1296 1170l-216 -626q-24 -74 -24 -102q0 -52 61 -52q113 0 226 132t113 351q0 225 -163 370t-463 145q-292 0 -480 -196q-187 -195 -187 -457q0 -276 195 -464t471 -188q185 0 340 69q155 70 247 200h123q-102 -185 -295 -285q-193 -99 -410 -99q-326 0 -556 223
q-230 224 -230 545q0 320 225 543q225 224 554 224q377 0 560 -195q184 -194 184 -438q0 -286 -155 -441q-154 -154 -329 -154q-63 0 -113 32q-50 33 -62 84v0q-100 -112 -247 -112q-134 0 -214 89q-80 90 -80 217q0 227 149 427q150 200 366 200q81 0 146 -41t93 -103
l30 102h141zM894 1089q-166 0 -266 -171t-100 -317q0 -81 44 -140t120 -59q160 0 269 241q79 180 79 293q0 65 -43 109t-103 44z" />
    <glyph glyph-name="A" unicode="A" horiz-adv-x="1251" 
d="M30 0l464 1472h241l480 -1472h-211l-106 353v0h-570v0l-109 -353h-189zM377 517v0h468v0l-238 788v0zM632 1663v0v0zM1183 0v0v0zM0 1503v0v0z" />
    <glyph glyph-name="B" unicode="B" horiz-adv-x="1251" 
d="M183 0v1472h492q180 0 284 -96q105 -95 105 -257q0 -299 -283 -347q331 -27 331 -359q0 -209 -111 -311t-310 -102h-508zM376 164h274q117 0 193 70t76 183q0 138 -76 205q-76 68 -253 68h-214v-526zM376 854h275q220 0 220 231q0 105 -61 164t-167 59h-267v-454z" />
    <glyph glyph-name="C" unicode="C" horiz-adv-x="1139" 
d="M838 433h193q0 -240 -105 -352q-104 -112 -322 -112q-217 0 -336 119q-118 120 -118 451v437q0 527 466 527q399 0 399 -339v-93h-193v49q0 224 -215 224q-118 0 -191 -75t-73 -331v-425q0 -194 54 -290q55 -95 209 -95q109 0 170 81q62 82 62 224zM616 1663v0v0zM583 0
v0v0z" />
    <glyph glyph-name="D" unicode="D" horiz-adv-x="1251" 
d="M171 0v1472h454q237 0 356 -142q119 -141 119 -560q0 -500 -135 -635q-134 -135 -406 -135h-388zM364 164h191q195 0 273 96q79 97 79 326v329q0 214 -73 303q-73 90 -215 90h-255v-1144zM581 1663v0v0zM0 1503v0v0z" />
    <glyph glyph-name="E" unicode="E" 
d="M165 0v1472h769v-164h-576v-469h534v-164h-534v-511h588v-164h-781zM513 1663v0v0zM889 0v0v0zM0 1503v0v0z" />
    <glyph glyph-name="F" unicode="F" horiz-adv-x="909" 
d="M150 0v1472h737v-164h-544v-469h514v-164h-514v-675h-193z" />
    <glyph glyph-name="G" unicode="G" horiz-adv-x="1251" 
d="M596 634v164h464v-719q-192 -110 -449 -110q-232 0 -348 129t-116 440v480q0 485 471 485q442 0 442 -372v-60h-193q0 273 -255 273q-149 0 -211 -91q-61 -91 -61 -234v-506q0 -238 74 -312q74 -73 185 -73q181 0 268 65v441h-271zM607 1663v0v0zM607 0v0v0z" />
    <glyph glyph-name="H" unicode="H" horiz-adv-x="1251" 
d="M177 1472h193v-633h511v633h193v-1472h-193v675h-511v-675h-193v1472z" />
    <glyph glyph-name="I" unicode="I" horiz-adv-x="569" 
d="M189 1472h193v-1472h-193v1472zM286 1663v0v0zM328 0v0v0zM0 1503v0v0z" />
    <glyph glyph-name="J" unicode="J" 
d="M60 465h193q0 -180 34 -259q35 -78 140 -78q110 0 159 71q50 72 50 255v1018h193v-1116q0 -387 -400 -387q-171 0 -270 98q-99 99 -99 308v90z" />
    <glyph glyph-name="K" unicode="K" horiz-adv-x="1139" 
d="M358 817v0l522 655h214l-537 -667l567 -805h-241l-525 776v0v-776h-193v1472h193v-655zM637 0v0v0z" />
    <glyph glyph-name="L" unicode="L" horiz-adv-x="909" 
d="M165 1472h193v-1308h544v-164h-737v1472zM343 1663v0v0zM585 0v0v0zM0 1503v0v0z" />
    <glyph glyph-name="M" unicode="M" horiz-adv-x="1706" 
d="M168 1472h304l381 -1242v0l382 1242h310v-1472h-193v1300v0l-415 -1300h-177l-415 1311v0v-1311h-177v1472z" />
    <glyph glyph-name="N" unicode="N" horiz-adv-x="1366" 
d="M177 1472h268l580 -1271v0v1271h168v-1472h-259l-589 1282v0v-1282h-168v1472zM705 1663v0v0zM665 0v0v0zM0 1503v0v0z" />
    <glyph glyph-name="O" unicode="O" horiz-adv-x="1251" 
d="M159 532v485q0 231 118 358q118 128 347 128q228 0 346 -128q118 -127 118 -354v-489q0 -289 -111 -426t-350 -137q-253 0 -361 141q-107 142 -107 422zM352 1021v-506q0 -196 58 -292q58 -95 214 -95q142 0 206 88q65 88 65 307v508q0 155 -73 234t-199 79
q-271 0 -271 -323zM634 1663v0v0z" />
    <glyph glyph-name="P" unicode="P" horiz-adv-x="1139" 
d="M189 1472h444q186 0 295 -100q110 -99 110 -320q0 -190 -107 -295t-298 -105h-251v-652h-193v1472zM382 1308v-492h210q125 0 189 68t64 180q0 116 -58 180t-163 64h-242z" />
    <glyph glyph-name="Q" unicode="Q" horiz-adv-x="1251" 
d="M938 128v0q120 36 137 36h145v-164h-650q-222 0 -323 128q-100 129 -100 399v489q0 232 118 359q118 128 347 128q228 0 346 -127q118 -126 118 -356v-481q0 -119 -36 -244q-40 -143 -102 -167zM340 514q0 -200 63 -282q63 -81 211 -81q151 0 210 88t59 285v506
q0 157 -73 235q-73 79 -199 79q-271 0 -271 -325v-505z" />
    <glyph glyph-name="R" unicode="R" horiz-adv-x="1139" 
d="M162 0v1472h507q169 0 263 -97q95 -96 95 -271q0 -283 -277 -341q119 -12 177 -78q59 -66 66 -232q9 -287 55 -453h-196q-29 44 -40 192q-10 148 -17 293q-11 190 -217 190h-223v-675h-193zM355 839h277q93 0 147 67q55 67 55 178q0 91 -49 157q-49 67 -146 67h-284v-469
zM564 1663v0v0zM595 0v0v0zM0 1503v0v0z" />
    <glyph glyph-name="S" unicode="S" horiz-adv-x="1139" 
d="M128 433h193v-52q0 -114 66 -181t195 -67q111 0 180 60t69 175q0 92 -69 158q-68 66 -241 152q-212 109 -287 202q-74 94 -74 224q0 179 115 289t322 110q205 0 308 -100t103 -275v-57h-193v0q0 268 -229 268q-109 0 -171 -58t-62 -156q0 -103 94 -182q58 -50 234 -138
q177 -88 253 -179q90 -108 90 -251q0 -406 -473 -406q-202 0 -313 105q-110 106 -110 305v54zM609 1663v0v0zM561 0v0v0z" />
    <glyph glyph-name="T" unicode="T" 
d="M32 1472h961v-164h-384v-1308h-193v1308h-384v164zM513 1663v0v0zM513 0v0v0zM0 1503v0v0z" />
    <glyph glyph-name="U" unicode="U" horiz-adv-x="1251" 
d="M159 1472h193v-956q0 -211 65 -300q65 -88 204 -88q143 0 208 87q66 87 66 302v955h193v-934q0 -303 -117 -436q-116 -133 -344 -133q-238 0 -353 133t-115 436v934zM631 1663v0v0zM732 0v0v0zM0 1503v0v0z" />
    <glyph glyph-name="V" unicode="V" horiz-adv-x="1139" 
d="M581 167v0l348 1305h193l-432 -1472h-226l-432 1472h205z" />
    <glyph glyph-name="W" unicode="W" horiz-adv-x="1821" 
d="M16 1472h202l286 -1282v0l296 1282h244l277 -1282v0l295 1282h196l-384 -1472h-229l-288 1277v0l-298 -1277h-229z" />
    <glyph glyph-name="X" unicode="X" horiz-adv-x="1139" 
d="M12 0l425 765v0l-404 707h217l302 -569v0l308 569h208l-395 -707v0l440 -765h-224l-345 627v0l-327 -627h-205z" />
    <glyph glyph-name="Y" unicode="Y" 
d="M16 1472h211l293 -713v0l300 713h189l-400 -908v-564h-193v564zM575 1663v0v0zM0 1503v0v0z" />
    <glyph glyph-name="Z" unicode="Z" 
d="M48 0v213l719 1095v0h-695v164h888v-190l-735 -1118v0h750v-164h-927zM516 1663v0v0zM0 1503v0v0z" />
    <glyph glyph-name="bracketleft" unicode="[" horiz-adv-x="569" 
d="M144 -239h344v113h-176v1553h170v113h-338v-1779z" />
    <glyph glyph-name="backslash" unicode="\" horiz-adv-x="569" 
d="M435 -32l-438 1504h138l438 -1504h-138z" />
    <glyph glyph-name="bracketright" unicode="]" horiz-adv-x="569" 
d="M425 -239h-344v113h176v1553h-170v113h338v-1779z" />
    <glyph glyph-name="asciicircum" unicode="^" 
d="M279 573h-144l320 854h123l320 -854h-144l-241 657v0z" />
    <glyph glyph-name="underscore" unicode="_" 
d="M0 -254v103h1024v-103h-1024z" />
    <glyph glyph-name="grave" unicode="`" horiz-adv-x="569" 
d="M303 1184l-262 288h224l176 -288h-138zM266 1184v0v0z" />
    <glyph glyph-name="a" unicode="a" 
d="M158 758q6 304 347 304t341 -315v-511q0 -124 24 -236h-187v155q-72 -177 -259 -177q-290 0 -290 339q0 158 104 243t310 85h130v89q0 201 -177 201q-71 0 -118 -44q-46 -43 -46 -133h-179zM678 518h-37q-191 0 -265 -50t-74 -159q0 -90 44 -142t116 -52q102 0 159 80
t57 323v0zM514 1190v0v0zM824 0v0v0z" />
    <glyph glyph-name="b" unicode="b" 
d="M163 0v1472h168v-554q39 72 99 108q61 36 140 36q175 0 256 -118q81 -117 81 -424q0 -276 -73 -409q-72 -133 -260 -133q-172 0 -243 144v-122h-168zM331 514q0 -226 45 -313q46 -86 143 -86q112 0 160 88q49 88 49 292q0 248 -43 339t-160 91q-78 0 -120 -47t-56 -108
q-18 -81 -18 -256z" />
    <glyph glyph-name="c" unicode="c" 
d="M688 346h179q0 -174 -96 -271q-95 -97 -231 -97q-228 0 -308 135t-80 394q0 303 88 429t304 126q147 0 231 -82t84 -270v0v0h-179v0v0q0 102 -36 158q-36 57 -104 57q-110 0 -160 -79q-49 -79 -49 -272q0 -273 45 -366t159 -93q153 1 153 231zM547 1190v0v0zM459 0v0v0z
" />
    <glyph glyph-name="d" unicode="d" 
d="M694 918v554h168v-1472h-168v122q-72 -144 -243 -144q-179 0 -256 127t-77 415q0 315 85 428q85 114 253 114q166 0 238 -144zM297 495q0 -214 52 -297t157 -83q93 0 140 80q48 80 48 319q0 175 -19 256q-14 61 -56 108t-119 47q-120 0 -162 -91q-41 -91 -41 -339z" />
    <glyph glyph-name="e" unicode="e" 
d="M310 466v0q0 -202 50 -277q50 -74 156 -74q77 0 125 54q48 55 53 145h184q0 -157 -94 -247q-94 -89 -262 -89q-240 0 -316 148q-75 149 -75 381q0 310 89 432q90 123 303 123q202 0 282 -113q81 -112 81 -374v-109h-576zM310 593h397v0q0 215 -63 292q-40 50 -128 50
q-112 0 -159 -75t-47 -267zM506 1190v0v0zM579 0v0v0z" />
    <glyph glyph-name="f" unicode="f" horiz-adv-x="569" 
d="M16 1040h160v175q0 135 68 196q69 61 235 61q36 0 73 -6v-123q-5 2 -39 2q-169 0 -169 -135v-170h208v-127h-208v-913h-168v913h-160v127z" />
    <glyph glyph-name="g" unicode="g" 
d="M174 -112h192v0q0 -78 49 -112q49 -33 104 -33q178 0 178 174v211q-75 -128 -234 -128q-205 0 -282 175q-55 126 -55 373q0 514 326 514q171 0 245 -160v138h168v-1141q0 -283 -359 -283q-164 0 -248 71q-84 72 -84 169v32zM305 549q0 -223 48 -318q48 -94 152 -94
q96 0 146 76q51 77 51 312q0 237 -47 318q-47 82 -147 82q-113 0 -158 -94q-45 -93 -45 -282zM493 1190v0v0z" />
    <glyph glyph-name="h" unicode="h" 
d="M144 1472h168v-570q83 160 284 160q145 0 210 -79q66 -78 66 -257v-726h-168v723q0 202 -176 202q-216 0 -216 -293v-632h-168v1472z" />
    <glyph glyph-name="i" unicode="i" horiz-adv-x="455" 
d="M144 1040h168v-1040h-168v1040zM133 1493h190v-181h-190v181zM265 0v0v0z" />
    <glyph glyph-name="j" unicode="j" horiz-adv-x="455" 
d="M144 -136v1176h168v-1174q0 -143 -63 -195t-231 -55v0v143v0q72 0 99 22q27 23 27 83zM133 1493h190v-181h-190v181z" />
    <glyph glyph-name="k" unicode="k" horiz-adv-x="909" 
d="M315 589v0l323 451h205l-347 -447l407 -593h-213l-375 581v0v-581h-168v1472h168v-883zM513 0v0v0z" />
    <glyph glyph-name="l" unicode="l" horiz-adv-x="455" 
d="M144 0v1472h168v-1472h-168zM230 1664v0v0zM230 0v0v0z" />
    <glyph glyph-name="m" unicode="m" horiz-adv-x="1479" 
d="M307 0h-168v837q0 95 -5 203h173v-138q62 160 259 160q180 0 240 -128q69 128 246 128q279 0 279 -274v-788h-168v723q0 202 -164 202q-180 0 -180 -221v-704h-168v723q0 202 -157 202q-187 0 -187 -225v-700z" />
    <glyph glyph-name="n" unicode="n" 
d="M315 0h-168v857q0 75 -5 183h179l-6 -138q46 89 116 124q71 36 168 36q143 0 209 -76q67 -75 67 -260v-726h-168v723q0 202 -179 202q-213 0 -213 -293v-632zM528 1190v0v0zM522 0v0v0z" />
    <glyph glyph-name="o" unicode="o" 
d="M118 507q0 323 93 439q94 116 304 116q220 0 305 -127q85 -126 85 -411q0 -305 -88 -426q-88 -120 -302 -120q-208 0 -303 112q-94 113 -94 417zM297 574q0 -260 43 -360q43 -99 175 -99q123 0 167 101t44 358q0 205 -56 278t-157 73q-114 0 -165 -79q-51 -78 -51 -272z
M512 1190v0v0z" />
    <glyph glyph-name="p" unicode="p" 
d="M320 902q73 160 243 160q178 0 255 -128q78 -127 78 -414q0 -310 -84 -426q-83 -116 -254 -116q-169 0 -238 144v-506h-168v1424h168v-138zM320 526v-49q0 -197 48 -280q48 -82 146 -82q117 0 160 91t43 342q0 215 -51 296q-50 81 -158 81q-97 0 -143 -87
q-45 -86 -45 -312z" />
    <glyph glyph-name="q" unicode="q" 
d="M697 902v138h168v-1424h-168v506q-33 -61 -90 -103q-57 -41 -149 -41q-178 0 -258 124q-79 125 -79 418q0 292 78 417t255 125q169 0 243 -160zM300 548q0 -251 41 -342q42 -91 162 -91q103 0 148 96q46 96 46 315q0 226 -46 312q-46 87 -142 87q-107 0 -158 -81
t-51 -296z" />
    <glyph glyph-name="r" unicode="r" horiz-adv-x="682" 
d="M155 0v1040h168v-163v0q66 185 285 185h35v0v-175q-44 10 -90 10q-230 0 -230 -284v-613h-168zM401 1190v0v0zM237 0v0v0z" />
    <glyph glyph-name="s" unicode="s" horiz-adv-x="909" 
d="M104 314h192v0q0 -199 165 -199q87 0 133 37q46 38 46 118q0 56 -52 95q-52 40 -156 87q-146 66 -225 140q-79 75 -79 179q0 137 95 214t263 77q157 0 241 -68q84 -67 84 -163v-57h-192v0q0 161 -154 161q-70 0 -114 -38t-44 -104q0 -60 78 -107q78 -46 156 -80
q132 -62 205 -132t73 -174q0 -322 -358 -322q-357 0 -357 336v0zM507 1190v0v0zM446 0v0v0z" />
    <glyph glyph-name="t" unicode="t" horiz-adv-x="569" 
d="M-6 913v127h171v197l168 75v-272h224v-127h-224v-664q0 -65 37 -100q38 -34 113 -34q28 0 78 8v-127q-60 -18 -166 -18q-230 0 -230 190v745h-171zM276 0v0v0z" />
    <glyph glyph-name="u" unicode="u" 
d="M155 1040h168v-723q0 -212 173 -212q101 0 152 74t51 163v698h168v-857q0 -76 5 -183h-173v138q-79 -160 -270 -160q-128 0 -201 66q-73 67 -73 195v801zM502 1190v0v0zM816 0v0v0zM0 1062v0v0z" />
    <glyph glyph-name="v" unicode="v" horiz-adv-x="909" 
d="M452 154v0l249 886h176l-320 -1040h-221l-304 1040h189z" />
    <glyph glyph-name="w" unicode="w" horiz-adv-x="1479" 
d="M18 1040h186l187 -902v0l235 902h239l211 -902v0l202 902h179l-272 -1040h-226l-220 890v0l-239 -890h-226z" />
    <glyph glyph-name="x" unicode="x" horiz-adv-x="909" 
d="M13 0l319 544v0l-293 496h215l196 -374v0l206 374h205l-310 -496v0l342 -544h-221l-238 423v0l-221 -423h-200z" />
    <glyph glyph-name="y" unicode="y" horiz-adv-x="909" 
d="M16 1040h194l254 -840v0l251 840h181l-473 -1424h-173l115 384v0zM484 1190v0v0zM0 1062v0v0z" />
    <glyph glyph-name="z" unicode="z" horiz-adv-x="797" 
d="M71 0v158l454 745v0h-430v137h616v-154l-459 -749v0h472v-137h-653zM429 1190v0v0zM0 1062v0v0z" />
    <glyph glyph-name="braceleft" unicode="{" horiz-adv-x="561" 
d="M16 743q115 25 153 61q39 36 39 107v372q0 269 290 269h62v-115v0q-101 -5 -142 -42t-41 -149v-307q0 -108 -52 -173q-51 -64 -176 -81v0q131 -30 179 -94q49 -63 49 -194v-347q0 -100 40 -146q40 -45 143 -45v0v-115h-21h-18q-166 0 -240 70q-73 70 -73 227v415
q0 73 -37 106q-36 33 -155 66v115z" />
    <glyph glyph-name="bar" unicode="|" horiz-adv-x="512" 
d="M192 1536h127v-2048h-127v2048z" />
    <glyph glyph-name="braceright" unicode="}" horiz-adv-x="561" 
d="M560 629q-120 -33 -156 -66t-36 -107v-415q0 -149 -70 -223q-69 -74 -244 -74h-18q-15 0 -20 2v113v0q102 0 142 45q41 46 41 146v347q0 132 48 195q48 64 180 94v0q-107 15 -168 74q-60 59 -60 179v307q0 112 -42 149q-41 37 -141 42v0v115h62q290 0 290 -268v-372
q0 -71 38 -107t154 -61v-115z" />
    <glyph glyph-name="asciitilde" unicode="~" 
d="M89 484q100 197 237 197q67 0 201 -71q134 -70 176 -70q90 0 165 141l69 -97q-99 -199 -234 -199q-65 0 -196 70q-130 71 -179 71q-91 0 -170 -141z" />
    <glyph glyph-name="exclamdown" unicode="&#xa1;" horiz-adv-x="682" 
d="M413 744l39 -1129v0h-223v0l39 1129h145zM437 1087v-213h-193v213h193z" />
    <glyph glyph-name="cent" unicode="&#xa2;" horiz-adv-x="909" 
d="M208 71v0q-113 120 -113 433q0 298 86 424q87 126 314 126q68 0 125 -18v0l54 130v0l64 -30l-53 -132v0q114 -81 114 -302v0h-176q0 81 -10 129v0l-274 -660v0q46 -57 143 -57q60 0 105 59t45 173h176q0 -176 -93 -272t-235 -96q-131 0 -203 38v0l-57 -134v0l-74 33z
M299 272v0l264 628v0q-32 18 -72 18q-116 0 -168 -78t-52 -268q0 -206 28 -300z" />
    <glyph glyph-name="sterling" unicode="&#xa3;" horiz-adv-x="909" 
d="M-9 860h164v243q0 343 379 343q164 0 260 -88t96 -246v-19v-15h-196v33q0 173 -167 173q-90 0 -136 -44q-45 -43 -45 -168v-212h283v-162h-283v-536h535v-162h-878v162h152v536h-164v162z" />
    <glyph glyph-name="currency" unicode="&#xa4;" horiz-adv-x="909" 
d="M-6 1014l99 105l77 -82v0q128 96 285 96v0q146 0 277 -101v0l82 87l99 -105l-80 -92v0q88 -132 88 -317v0q0 -156 -88 -295v0l80 -87l-99 -111l-83 92v0q-125 -104 -279 -104v0q-143 0 -280 104v0l-81 -92l-97 111l82 91v0q-92 133 -92 300v0q0 187 92 308v0zM137 616
q0 -164 91 -264q92 -99 220 -99q131 0 225 98q95 98 95 266q0 160 -91 261q-90 102 -217 102q-163 0 -243 -110q-80 -109 -80 -254z" />
    <glyph glyph-name="yen" unicode="&#xa5;" horiz-adv-x="909" 
d="M368 0v272h-240v136h240v128h-240v136h188v0l-316 752h199l261 -656v0l280 656h179l-331 -752v0h187v-136h-240v-128h240v-136h-240v-272h-167z" />
    <glyph glyph-name="brokenbar" unicode="&#xa6;" horiz-adv-x="512" 
d="M319 -352h-127v720h127v-720zM192 1392h127v-720h-127v720z" />
    <glyph glyph-name="section" unicode="&#xa7;" horiz-adv-x="909" 
d="M141 15v183q146 -68 264 -68q84 0 138 37q54 38 54 100q0 99 -166 157l-115 41q-205 74 -205 232q0 164 208 267q-181 81 -181 237q0 139 97 219q97 81 256 81q109 0 230 -39v-169q-138 52 -215 52t-126 -37t-49 -94q0 -92 150 -149l111 -42q183 -70 183 -226
q0 -92 -57 -163q-56 -71 -154 -105q90 -22 158 -83t68 -162q0 -146 -104 -228t-271 -82q-148 0 -274 41zM431 916q-152 -59 -152 -170q0 -65 30 -97q31 -32 132 -67q166 58 166 179q0 62 -44 95t-132 60z" />
    <glyph glyph-name="dieresis" unicode="&#xa8;" horiz-adv-x="569" 
d="M16 1413h189v-213h-189v213zM365 1413h189v-213h-189v213zM287 1184v0v0z" />
    <glyph glyph-name="copyright" unicode="&#xa9;" horiz-adv-x="1638" 
d="M817 -43q-316 0 -543 228q-226 228 -226 546q0 320 225 546q226 227 545 227q315 0 542 -224q227 -223 227 -543t-228 -550q-227 -230 -542 -230zM163 730q0 -265 189 -458q190 -192 471 -192q273 0 461 192t188 459q0 271 -194 460q-193 190 -461 190q-276 0 -465 -190
q-189 -189 -189 -461zM1104 956h-145q0 141 -130 141q-101 0 -144 -42q-43 -41 -43 -137v-288q0 -134 51 -171q52 -37 122 -37q151 0 158 173h143q0 -288 -301 -288q-145 0 -231 73q-85 74 -85 273v216q0 343 328 343q277 0 277 -224v-32z" />
    <glyph glyph-name="ordfeminine" unicode="&#xaa;" horiz-adv-x="614" 
d="M51 1321q5 192 255 192q248 0 248 -185v-306q0 -74 18 -141h-149v93q-50 -106 -175 -106q-212 0 -212 206q0 91 77 145t241 57h66v28q0 126 -121 126q-120 0 -120 -109h-128zM420 1193h-23q-143 0 -185 -31t-42 -98q0 -113 100 -113q79 0 114 54q36 54 36 165v19v4z" />
    <glyph glyph-name="guillemotleft" unicode="&#xab;" horiz-adv-x="909" 
d="M413 558l193 -400h159l-169 397l169 403h-156zM61 558l193 -400h159l-169 397l169 403h-156z" />
    <glyph glyph-name="logicalnot" unicode="&#xac;" 
d="M96 781h848v-543h-127v416h-721v127z" />
    <glyph glyph-name="hyphen" unicode="&#xad;" horiz-adv-x="682" 
d="M112 638h448v-156h-448v156z" />
    <glyph glyph-name="registered" unicode="&#xae;" horiz-adv-x="1638" 
d="M817 -43q-316 0 -543 228q-226 228 -226 546q0 320 225 546q226 227 545 227q315 0 542 -224q227 -223 227 -543t-228 -550q-227 -230 -542 -230zM163 730q0 -265 189 -458q190 -192 471 -192q273 0 461 192t188 459q0 271 -194 460q-193 190 -461 190q-276 0 -465 -190
q-189 -189 -189 -461zM531 292v881h342q127 0 187 -62t60 -155q0 -79 -58 -136q-57 -56 -138 -67v0q81 -15 112 -45q32 -29 41 -130q16 -171 16 -173q0 -72 27 -113h-143q-21 32 -35 273q-6 125 -131 125h-137v-398h-143zM674 1076v-271h181q122 0 122 139q0 132 -124 132
h-179z" />
    <glyph glyph-name="macron" unicode="&#xaf;" horiz-adv-x="569" 
d="M0 1345h560v-113h-560v113zM282 1184v0v0z" />
    <glyph glyph-name="macron" unicode="&#x2c9;" horiz-adv-x="569" 
d="M0 1345h560v-113h-560v113zM282 1184v0v0z" />
    <glyph glyph-name="degree" unicode="&#xb0;" horiz-adv-x="819" 
d="M96 1142q0 125 90 214q91 90 222 90q129 0 220 -90q92 -89 92 -215q0 -128 -92 -216q-91 -88 -220 -88q-131 0 -222 88q-90 89 -90 217zM224 1140q0 -72 54 -123t130 -51q75 0 129 52q55 52 55 125q0 71 -55 122q-54 52 -129 52q-76 0 -130 -53q-54 -52 -54 -124z" />
    <glyph glyph-name="plusminus" unicode="&#xb1;" 
d="M96 131h863v-127h-863v127zM96 706h368v336h127v-336h368v-127h-368v-336h-127v336h-368v127z" />
    <glyph glyph-name="twosuperior" unicode="&#xb2;" horiz-adv-x="545" 
d="M32 684q74 91 213 255q140 165 140 278q0 105 -117 105q-89 0 -89 -125v0v0h-143v0v24q0 96 62 156t165 60q265 0 265 -221q0 -135 -96 -253q-95 -117 -229 -278v0h329v-109h-500v108z" />
    <glyph glyph-name="threesuperior" unicode="&#xb3;" horiz-adv-x="545" 
d="M4 814h131v0q0 -141 117 -141q141 0 141 135q0 98 -44 132q-43 34 -153 34v0v103h35q142 0 142 135q0 122 -117 122q-109 0 -109 -137h-129v40q0 98 59 149t178 51q133 0 197 -56q64 -55 64 -159q0 -165 -198 -199q109 -17 163 -64q55 -46 55 -156q0 -111 -76 -178
q-75 -67 -215 -67q-102 0 -172 50q-69 51 -69 165v41z" />
    <glyph glyph-name="acute" unicode="&#xb4;" horiz-adv-x="569" 
d="M128 1184l176 288h224l-262 -288h-138zM303 1184v0v0z" />
    <glyph glyph-name="mu" unicode="&#xb5;" 
d="M867 1040v-858q0 -77 11 -182h-179v139q-37 -71 -103 -116q-65 -45 -167 -45q-39 0 -106 20v-382h-168v1424h168v-722q0 -211 173 -211q95 0 149 68q54 69 54 169v696h168z" />
    <glyph glyph-name="paragraph" unicode="&#xb6;" horiz-adv-x="901" 
d="M336 -240v928q-130 0 -225 117q-95 118 -95 272q0 171 92 283q93 112 281 112h404v0v0v-1712h-143v1575h-171v-1575h-143z" />
    <glyph glyph-name="periodcentered" unicode="&#xb7;" horiz-adv-x="455" 
d="M131 416v212h192v-212h-192z" />
    <glyph glyph-name="periodcentered" unicode="&#x2219;" horiz-adv-x="455" 
d="M131 416v212h192v-212h-192z" />
    <glyph glyph-name="cedilla" unicode="&#xb8;" horiz-adv-x="569" 
d="M64 -406l35 83q75 -31 131 -31q110 0 110 75q0 84 -97 84q-7 0 -80 -17l-35 39l130 173h97l-100 -129q37 17 72 17q75 0 122 -43q47 -42 47 -112q0 -82 -67 -133q-66 -51 -166 -51q-99 0 -199 45zM255 0v0v0z" />
    <glyph glyph-name="onesuperior" unicode="&#xb9;" horiz-adv-x="545" 
d="M96 1318q33 14 160 106h127v-848h-143v708l-144 -84v118z" />
    <glyph glyph-name="ordmasculine" unicode="&#xba;" horiz-adv-x="614" 
d="M32 1183q0 197 63 263q63 67 206 67q134 0 199 -65q66 -64 66 -255q0 -182 -61 -254q-60 -71 -204 -71q-154 0 -212 75q-57 76 -57 240zM166 1223q0 -179 31 -227q31 -47 104 -47q70 0 100 51q31 52 31 194q0 129 -28 183q-27 55 -105 55q-75 0 -104 -45t-29 -164z" />
    <glyph glyph-name="guillemotright" unicode="&#xbb;" horiz-adv-x="909" 
d="M496 558l-193 -400h-159l169 397l-169 403h156zM848 558l-193 -400h-159l169 397l-169 403h156z" />
    <glyph glyph-name="onequarter" unicode="&#xbc;" horiz-adv-x="1364" 
d="M96 1318q33 14 160 106h127v-848h-143v708l-144 -84v118zM135 -52l896 1535h128l-896 -1535h-128zM719 304l262 545h202v-534h109v-115h-109v-199h-143v199h-321v104zM850 315v0h190v415v0z" />
    <glyph glyph-name="onehalf" unicode="&#xbd;" horiz-adv-x="1364" 
d="M35 1318q33 14 160 106h127v-848h-143v708l-144 -84v118zM74 -52l896 1535h128l-896 -1535h-128zM792 109q74 91 213 255q140 165 140 278q0 105 -117 105q-89 0 -89 -125v0v0h-143v0v24q0 96 62 156t165 60q265 0 265 -221q0 -135 -96 -253q-95 -117 -229 -278v0h329
v-109h-500v108z" />
    <glyph glyph-name="threequarters" unicode="&#xbe;" horiz-adv-x="1364" 
d="M14 814h131v0q0 -141 117 -141q141 0 141 135q0 98 -44 132q-43 34 -153 34v0v103h35q142 0 142 135q0 122 -117 122q-109 0 -109 -137h-129v40q0 98 59 149t178 51q133 0 197 -56q64 -55 64 -159q0 -165 -198 -199q109 -17 163 -64q55 -46 55 -156q0 -111 -76 -178
q-75 -67 -215 -67q-102 0 -172 50q-69 51 -69 165v41zM207 -52l896 1535h128l-896 -1535h-128zM750 304l262 545h202v-534h109v-115h-109v-199h-143v199h-321v104zM881 315v0h190v415v0z" />
    <glyph glyph-name="questiondown" unicode="&#xbf;" horiz-adv-x="909" 
d="M555 872h-193v213h193v-213zM796 5v-36q0 -387 -358 -387q-155 0 -243 93q-88 92 -88 247v0q0 183 97 315q63 90 117 158t54 166v151h168v-225q0 -81 -65 -172q-66 -91 -95 -141q-83 -136 -83 -254q0 -81 41 -141q40 -61 108 -61q154 0 154 244v43h193z" />
    <glyph glyph-name="Agrave" unicode="&#xc0;" horiz-adv-x="1251" 
d="M30 0l464 1472h241l480 -1472h-211l-106 353v0h-570v0l-109 -353h-189zM377 517v0h468v0l-238 788v0zM632 1663v0v0zM1183 0v0v0zM0 1503v0v0zM669 1663l-262 288h224l176 -288h-138zM632 1663v0v0z" />
    <glyph glyph-name="Aacute" unicode="&#xc1;" horiz-adv-x="1251" 
d="M30 0l464 1472h241l480 -1472h-211l-106 353v0h-570v0l-109 -353h-189zM377 517v0h468v0l-238 788v0zM632 1663v0v0zM1183 0v0v0zM0 1503v0v0zM457 1663l176 288h224l-262 -288h-138zM632 1663v0v0z" />
    <glyph glyph-name="Acircumflex" unicode="&#xc2;" horiz-adv-x="1251" 
d="M30 0l464 1472h241l480 -1472h-211l-106 353v0h-570v0l-109 -353h-189zM377 517v0h468v0l-238 788v0zM632 1663v0v0zM1183 0v0v0zM0 1503v0v0zM322 1663l208 288h189l208 -288h-165l-138 192v0l-137 -192h-165zM632 1663v0v0z" />
    <glyph glyph-name="Atilde" unicode="&#xc3;" horiz-adv-x="1251" 
d="M30 0l464 1472h241l480 -1472h-211l-106 353v0h-570v0l-109 -353h-189zM377 517v0h468v0l-238 788v0zM632 1663v0v0zM1183 0v0v0zM0 1503v0v0zM278 1657q14 109 66 164t147 55q58 0 151 -38q94 -38 135 -38q48 0 72 24q24 25 28 69h103q-7 -95 -67 -159t-144 -64
q-50 0 -153 38t-146 38q-38 0 -66 -27t-32 -62h-94zM632 1663v0v0z" />
    <glyph glyph-name="Adieresis" unicode="&#xc4;" horiz-adv-x="1251" 
d="M30 0l464 1472h241l480 -1472h-211l-106 353v0h-570v0l-109 -353h-189zM377 517v0h468v0l-238 788v0zM632 1663v0v0zM1183 0v0v0zM0 1503v0v0zM361 1892h189v-213h-189v213zM710 1892h189v-213h-189v213zM632 1663v0v0z" />
    <glyph glyph-name="Aring" unicode="&#xc5;" horiz-adv-x="1251" 
d="M30 0l464 1472h241l480 -1472h-211l-106 353v0h-570v0l-109 -353h-189zM377 517v0h468v0l-238 788v0zM632 1663v0v0zM1183 0v0v0zM0 1503v0v0zM420 1858q0 86 61 147q62 61 150 61q91 0 150 -60q60 -59 60 -151q0 -87 -62 -148q-62 -60 -149 -60t-149 56q-61 56 -61 155z
M505 1856q0 -53 36 -90q37 -36 90 -36q52 0 88 36q37 37 37 91q0 52 -37 89t-89 37q-53 0 -89 -37t-36 -90zM632 1663v0v0z" />
    <glyph glyph-name="AE" unicode="&#xc6;" horiz-adv-x="1706" 
d="M30 0l656 1472v0h910v-164h-606v0l63 -469v0h528v-164h-501v0l72 -511v0h462v-164h-624l-51 353v0h-557v0l-153 -353h-199zM459 517v0h458v0l-111 800v0z" />
    <glyph glyph-name="Ccedilla" unicode="&#xc7;" horiz-adv-x="1139" 
d="M838 433h193q0 -240 -105 -352q-104 -112 -322 -112q-217 0 -336 119q-118 120 -118 451v437q0 527 466 527q399 0 399 -339v-93h-193v49q0 224 -215 224q-118 0 -191 -75t-73 -331v-425q0 -194 54 -290q55 -95 209 -95q109 0 170 81q62 82 62 224zM616 1663v0v0zM583 0
v0v0zM392 -406l35 83q75 -31 131 -31q110 0 110 75q0 84 -97 84q-7 0 -80 -17l-35 39l130 173h97l-100 -129q37 17 72 17q75 0 122 -43q47 -42 47 -112q0 -82 -67 -133q-66 -51 -166 -51q-99 0 -199 45zM583 0v0v0z" />
    <glyph glyph-name="Egrave" unicode="&#xc8;" 
d="M165 0v1472h769v-164h-576v-469h534v-164h-534v-511h588v-164h-781zM513 1663v0v0zM889 0v0v0zM0 1503v0v0zM550 1663l-262 288h224l176 -288h-138zM513 1663v0v0z" />
    <glyph glyph-name="Eacute" unicode="&#xc9;" 
d="M165 0v1472h769v-164h-576v-469h534v-164h-534v-511h588v-164h-781zM513 1663v0v0zM889 0v0v0zM0 1503v0v0zM338 1663l176 288h224l-262 -288h-138zM513 1663v0v0z" />
    <glyph glyph-name="Ecircumflex" unicode="&#xca;" 
d="M165 0v1472h769v-164h-576v-469h534v-164h-534v-511h588v-164h-781zM513 1663v0v0zM889 0v0v0zM0 1503v0v0zM203 1663l208 288h189l208 -288h-165l-138 192v0l-137 -192h-165zM513 1663v0v0z" />
    <glyph glyph-name="Edieresis" unicode="&#xcb;" 
d="M165 0v1472h769v-164h-576v-469h534v-164h-534v-511h588v-164h-781zM513 1663v0v0zM889 0v0v0zM0 1503v0v0zM242 1892h189v-213h-189v213zM591 1892h189v-213h-189v213zM513 1663v0v0z" />
    <glyph glyph-name="Igrave" unicode="&#xcc;" horiz-adv-x="569" 
d="M189 1472h193v-1472h-193v1472zM286 1663v0v0zM328 0v0v0zM0 1503v0v0zM323 1663l-262 288h224l176 -288h-138zM286 1663v0v0z" />
    <glyph glyph-name="Iacute" unicode="&#xcd;" horiz-adv-x="569" 
d="M189 1472h193v-1472h-193v1472zM286 1663v0v0zM328 0v0v0zM0 1503v0v0zM111 1663l176 288h224l-262 -288h-138zM286 1663v0v0z" />
    <glyph glyph-name="Icircumflex" unicode="&#xce;" horiz-adv-x="569" 
d="M189 1472h193v-1472h-193v1472zM286 1663v0v0zM328 0v0v0zM0 1503v0v0zM-24 1663l208 288h189l208 -288h-165l-138 192v0l-137 -192h-165zM286 1663v0v0z" />
    <glyph glyph-name="Idieresis" unicode="&#xcf;" horiz-adv-x="569" 
d="M189 1472h193v-1472h-193v1472zM286 1663v0v0zM328 0v0v0zM0 1503v0v0zM15 1892h189v-213h-189v213zM364 1892h189v-213h-189v213zM286 1663v0v0z" />
    <glyph glyph-name="Eth" unicode="&#xd0;" horiz-adv-x="1251" 
d="M171 859v613h454q211 0 326 -107q149 -140 149 -595q0 -500 -135 -635q-134 -135 -406 -135h-388v744h-144v115h144zM364 859h304v-115h-304v-580h191q207 0 286 111q66 94 66 311v329q0 214 -77 308q-69 85 -211 85h-255v-449z" />
    <glyph glyph-name="Ntilde" unicode="&#xd1;" horiz-adv-x="1366" 
d="M177 1472h268l580 -1271v0v1271h168v-1472h-259l-589 1282v0v-1282h-168v1472zM705 1663v0v0zM665 0v0v0zM0 1503v0v0zM351 1657q14 109 66 164t147 55q58 0 151 -38q94 -38 135 -38q48 0 72 24q24 25 28 69h103q-7 -95 -67 -159t-144 -64q-50 0 -153 38t-146 38
q-38 0 -66 -27t-32 -62h-94zM705 1663v0v0z" />
    <glyph glyph-name="Ograve" unicode="&#xd2;" horiz-adv-x="1251" 
d="M159 532v485q0 231 118 358q118 128 347 128q228 0 346 -128q118 -127 118 -354v-489q0 -289 -111 -426t-350 -137q-253 0 -361 141q-107 142 -107 422zM352 1021v-506q0 -196 58 -292q58 -95 214 -95q142 0 206 88q65 88 65 307v508q0 155 -73 234t-199 79
q-271 0 -271 -323zM634 1663v0v0zM671 1663l-262 288h224l176 -288h-138zM634 1663v0v0z" />
    <glyph glyph-name="Oacute" unicode="&#xd3;" horiz-adv-x="1251" 
d="M159 532v485q0 231 118 358q118 128 347 128q228 0 346 -128q118 -127 118 -354v-489q0 -289 -111 -426t-350 -137q-253 0 -361 141q-107 142 -107 422zM352 1021v-506q0 -196 58 -292q58 -95 214 -95q142 0 206 88q65 88 65 307v508q0 155 -73 234t-199 79
q-271 0 -271 -323zM634 1663v0v0zM459 1663l176 288h224l-262 -288h-138zM634 1663v0v0z" />
    <glyph glyph-name="Ocircumflex" unicode="&#xd4;" horiz-adv-x="1251" 
d="M159 532v485q0 231 118 358q118 128 347 128q228 0 346 -128q118 -127 118 -354v-489q0 -289 -111 -426t-350 -137q-253 0 -361 141q-107 142 -107 422zM352 1021v-506q0 -196 58 -292q58 -95 214 -95q142 0 206 88q65 88 65 307v508q0 155 -73 234t-199 79
q-271 0 -271 -323zM634 1663v0v0zM324 1663l208 288h189l208 -288h-165l-138 192v0l-137 -192h-165zM634 1663v0v0z" />
    <glyph glyph-name="Otilde" unicode="&#xd5;" horiz-adv-x="1251" 
d="M159 532v485q0 231 118 358q118 128 347 128q228 0 346 -128q118 -127 118 -354v-489q0 -289 -111 -426t-350 -137q-253 0 -361 141q-107 142 -107 422zM352 1021v-506q0 -196 58 -292q58 -95 214 -95q142 0 206 88q65 88 65 307v508q0 155 -73 234t-199 79
q-271 0 -271 -323zM634 1663v0v0zM280 1657q14 109 66 164t147 55q58 0 151 -38q94 -38 135 -38q48 0 72 24q24 25 28 69h103q-7 -95 -67 -159t-144 -64q-50 0 -153 38t-146 38q-38 0 -66 -27t-32 -62h-94zM634 1663v0v0z" />
    <glyph glyph-name="Odieresis" unicode="&#xd6;" horiz-adv-x="1251" 
d="M159 532v485q0 231 118 358q118 128 347 128q228 0 346 -128q118 -127 118 -354v-489q0 -289 -111 -426t-350 -137q-253 0 -361 141q-107 142 -107 422zM352 1021v-506q0 -196 58 -292q58 -95 214 -95q142 0 206 88q65 88 65 307v508q0 155 -73 234t-199 79
q-271 0 -271 -323zM634 1663v0v0zM363 1892h189v-213h-189v213zM712 1892h189v-213h-189v213zM634 1663v0v0z" />
    <glyph glyph-name="multiply" unicode="&#xd7;" 
d="M185 97l-89 89l335 335v0l-335 335l89 89l335 -335v0l335 335l89 -89l-335 -335v0l335 -335l-89 -89l-335 335v0z" />
    <glyph glyph-name="Oslash" unicode="&#xd8;" horiz-adv-x="1251" 
d="M985 1357v0l106 161l72 -46l-126 -192v0q51 -107 51 -260v-489q0 -292 -109 -427t-352 -135q-248 0 -360 138v0l-114 -174l-69 46l129 211v0q-54 126 -54 347v484q0 229 118 355q118 127 347 127q242 0 361 -146zM870 1181v0q-59 163 -247 163q-271 0 -271 -325v-506
q0 -65 6 -114v0zM895 1059v0l-513 -778v0q52 -153 240 -153q151 0 212 87t61 309v535z" />
    <glyph glyph-name="Ugrave" unicode="&#xd9;" horiz-adv-x="1251" 
d="M159 1472h193v-956q0 -211 65 -300q65 -88 204 -88q143 0 208 87q66 87 66 302v955h193v-934q0 -303 -117 -436q-116 -133 -344 -133q-238 0 -353 133t-115 436v934zM631 1663v0v0zM732 0v0v0zM0 1503v0v0zM668 1663l-262 288h224l176 -288h-138zM631 1663v0v0z" />
    <glyph glyph-name="Uacute" unicode="&#xda;" horiz-adv-x="1251" 
d="M159 1472h193v-956q0 -211 65 -300q65 -88 204 -88q143 0 208 87q66 87 66 302v955h193v-934q0 -303 -117 -436q-116 -133 -344 -133q-238 0 -353 133t-115 436v934zM631 1663v0v0zM732 0v0v0zM0 1503v0v0zM456 1663l176 288h224l-262 -288h-138zM631 1663v0v0z" />
    <glyph glyph-name="Ucircumflex" unicode="&#xdb;" horiz-adv-x="1251" 
d="M159 1472h193v-956q0 -211 65 -300q65 -88 204 -88q143 0 208 87q66 87 66 302v955h193v-934q0 -303 -117 -436q-116 -133 -344 -133q-238 0 -353 133t-115 436v934zM631 1663v0v0zM732 0v0v0zM0 1503v0v0zM321 1663l208 288h189l208 -288h-165l-138 192v0l-137 -192
h-165zM631 1663v0v0z" />
    <glyph glyph-name="Udieresis" unicode="&#xdc;" horiz-adv-x="1251" 
d="M159 1472h193v-956q0 -211 65 -300q65 -88 204 -88q143 0 208 87q66 87 66 302v955h193v-934q0 -303 -117 -436q-116 -133 -344 -133q-238 0 -353 133t-115 436v934zM631 1663v0v0zM732 0v0v0zM0 1503v0v0zM360 1892h189v-213h-189v213zM709 1892h189v-213h-189v213z
M631 1663v0v0z" />
    <glyph glyph-name="Yacute" unicode="&#xdd;" 
d="M16 1472h211l293 -713v0l300 713h189l-400 -908v-564h-193v564zM575 1663v0v0zM0 1503v0v0zM400 1663l176 288h224l-262 -288h-138zM575 1663v0v0z" />
    <glyph glyph-name="Thorn" unicode="&#xde;" horiz-adv-x="1139" 
d="M382 1227h256q184 0 292 -101q108 -100 108 -323q0 -179 -107 -292q-107 -112 -298 -112h-251v-399h-193v1472h193v-245zM382 1063v-500h210q125 0 189 68q64 69 64 182q0 119 -58 184q-58 66 -163 66h-242z" />
    <glyph glyph-name="germandbls" unicode="&#xdf;" horiz-adv-x="1139" 
d="M144 0v1178q0 152 117 237q118 86 280 86q177 0 278 -77t101 -226q0 -108 -80 -187l-60 -62q-31 -30 -56 -66q-25 -35 -25 -66q0 -56 70 -114l112 -87q151 -121 151 -307q0 -331 -321 -331q-306 0 -306 278h173q0 -141 133 -141q142 0 142 185q0 116 -125 215l-85 68
q-68 49 -96 106q-27 58 -27 118v0q4 77 107 186q104 109 104 186q0 87 -53 136q-52 49 -137 49q-117 0 -173 -53q-56 -52 -56 -197v-1114h-168z" />
    <glyph glyph-name="agrave" unicode="&#xe0;" 
d="M158 758q6 304 347 304t341 -315v-511q0 -124 24 -236h-187v155q-72 -177 -259 -177q-290 0 -290 339q0 158 104 243t310 85h130v89q0 201 -177 201q-71 0 -118 -44q-46 -43 -46 -133h-179zM678 518h-37q-191 0 -265 -50t-74 -159q0 -90 44 -142t116 -52q102 0 159 80
t57 323v0zM514 1190v0v0zM824 0v0v0zM551 1190l-262 288h224l176 -288h-138zM514 1190v0v0z" />
    <glyph glyph-name="aacute" unicode="&#xe1;" 
d="M158 758q6 304 347 304t341 -315v-511q0 -124 24 -236h-187v155q-72 -177 -259 -177q-290 0 -290 339q0 158 104 243t310 85h130v89q0 201 -177 201q-71 0 -118 -44q-46 -43 -46 -133h-179zM678 518h-37q-191 0 -265 -50t-74 -159q0 -90 44 -142t116 -52q102 0 159 80
t57 323v0zM514 1190v0v0zM824 0v0v0zM339 1190l176 288h224l-262 -288h-138zM514 1190v0v0z" />
    <glyph glyph-name="acircumflex" unicode="&#xe2;" 
d="M158 758q6 304 347 304t341 -315v-511q0 -124 24 -236h-187v155q-72 -177 -259 -177q-290 0 -290 339q0 158 104 243t310 85h130v89q0 201 -177 201q-71 0 -118 -44q-46 -43 -46 -133h-179zM678 518h-37q-191 0 -265 -50t-74 -159q0 -90 44 -142t116 -52q102 0 159 80
t57 323v0zM514 1190v0v0zM824 0v0v0zM204 1190l208 288h189l208 -288h-165l-138 192v0l-137 -192h-165zM514 1190v0v0z" />
    <glyph glyph-name="atilde" unicode="&#xe3;" 
d="M158 758q6 304 347 304t341 -315v-511q0 -124 24 -236h-187v155q-72 -177 -259 -177q-290 0 -290 339q0 158 104 243t310 85h130v89q0 201 -177 201q-71 0 -118 -44q-46 -43 -46 -133h-179zM678 518h-37q-191 0 -265 -50t-74 -159q0 -90 44 -142t116 -52q102 0 159 80
t57 323v0zM514 1190v0v0zM824 0v0v0zM160 1184q14 109 66 164t147 55q58 0 151 -38q94 -38 135 -38q48 0 72 24q24 25 28 69h103q-7 -95 -67 -159t-144 -64q-50 0 -153 38t-146 38q-38 0 -66 -27t-32 -62h-94zM514 1190v0v0z" />
    <glyph glyph-name="adieresis" unicode="&#xe4;" 
d="M158 758q6 304 347 304t341 -315v-511q0 -124 24 -236h-187v155q-72 -177 -259 -177q-290 0 -290 339q0 158 104 243t310 85h130v89q0 201 -177 201q-71 0 -118 -44q-46 -43 -46 -133h-179zM678 518h-37q-191 0 -265 -50t-74 -159q0 -90 44 -142t116 -52q102 0 159 80
t57 323v0zM514 1190v0v0zM824 0v0v0zM243 1419h189v-213h-189v213zM592 1419h189v-213h-189v213zM514 1190v0v0z" />
    <glyph glyph-name="aring" unicode="&#xe5;" 
d="M158 758q6 304 347 304t341 -315v-511q0 -124 24 -236h-187v155q-72 -177 -259 -177q-290 0 -290 339q0 158 104 243t310 85h130v89q0 201 -177 201q-71 0 -118 -44q-46 -43 -46 -133h-179zM678 518h-37q-191 0 -265 -50t-74 -159q0 -90 44 -142t116 -52q102 0 159 80
t57 323v0zM514 1190v0v0zM824 0v0v0zM302 1385q0 86 61 147q62 61 150 61q91 0 150 -60q60 -59 60 -151q0 -87 -62 -148q-62 -60 -149 -60t-149 56q-61 56 -61 155zM387 1383q0 -53 36 -90q37 -36 90 -36q52 0 88 36q37 37 37 91q0 52 -37 89t-89 37q-53 0 -89 -37t-36 -90z
M514 1190v0v0z" />
    <glyph glyph-name="ae" unicode="&#xe6;" horiz-adv-x="1593" 
d="M805 905q46 157 278 157q207 0 288 -128t81 -339q0 -15 -5 -102h-571v0v0v0v0v0q0 -213 44 -296q44 -82 147 -82q180 0 195 215h179q0 -182 -95 -267q-94 -85 -270 -85q-127 0 -209 51q-82 52 -103 135q-79 -186 -316 -186q-151 0 -231 80t-80 228q0 152 84 232
q84 81 316 94l160 8v0v103q0 106 -47 159t-141 53q-92 0 -131 -46q-38 -45 -38 -110v-21h-179q6 304 345 304q246 0 299 -157zM323 285q0 -170 162 -170q111 0 161 82q51 83 51 239v57v0h-74q-163 -3 -232 -51q-68 -47 -68 -157zM876 620h397v0q0 174 -54 244
q-54 71 -151 71q-192 0 -192 -315z" />
    <glyph glyph-name="ccedilla" unicode="&#xe7;" 
d="M688 346h179q0 -174 -96 -271q-95 -97 -231 -97q-228 0 -308 135t-80 394q0 303 88 429t304 126q147 0 231 -82t84 -270v0v0h-179v0v0q0 102 -36 158q-36 57 -104 57q-110 0 -160 -79q-49 -79 -49 -272q0 -273 45 -366t159 -93q153 1 153 231zM547 1190v0v0zM459 0v0v0z
M268 -406l35 83q75 -31 131 -31q110 0 110 75q0 84 -97 84q-7 0 -80 -17l-35 39l130 173h97l-100 -129q37 17 72 17q75 0 122 -43q47 -42 47 -112q0 -82 -67 -133q-66 -51 -166 -51q-99 0 -199 45zM459 0v0v0z" />
    <glyph glyph-name="egrave" unicode="&#xe8;" 
d="M310 466v0q0 -202 50 -277q50 -74 156 -74q77 0 125 54q48 55 53 145h184q0 -157 -94 -247q-94 -89 -262 -89q-240 0 -316 148q-75 149 -75 381q0 310 89 432q90 123 303 123q202 0 282 -113q81 -112 81 -374v-109h-576zM310 593h397v0q0 215 -63 292q-40 50 -128 50
q-112 0 -159 -75t-47 -267zM506 1190v0v0zM579 0v0v0zM543 1190l-262 288h224l176 -288h-138zM506 1190v0v0z" />
    <glyph glyph-name="eacute" unicode="&#xe9;" 
d="M310 466v0q0 -202 50 -277q50 -74 156 -74q77 0 125 54q48 55 53 145h184q0 -157 -94 -247q-94 -89 -262 -89q-240 0 -316 148q-75 149 -75 381q0 310 89 432q90 123 303 123q202 0 282 -113q81 -112 81 -374v-109h-576zM310 593h397v0q0 215 -63 292q-40 50 -128 50
q-112 0 -159 -75t-47 -267zM506 1190v0v0zM579 0v0v0zM331 1190l176 288h224l-262 -288h-138zM506 1190v0v0z" />
    <glyph glyph-name="ecircumflex" unicode="&#xea;" 
d="M310 466v0q0 -202 50 -277q50 -74 156 -74q77 0 125 54q48 55 53 145h184q0 -157 -94 -247q-94 -89 -262 -89q-240 0 -316 148q-75 149 -75 381q0 310 89 432q90 123 303 123q202 0 282 -113q81 -112 81 -374v-109h-576zM310 593h397v0q0 215 -63 292q-40 50 -128 50
q-112 0 -159 -75t-47 -267zM506 1190v0v0zM579 0v0v0zM196 1190l208 288h189l208 -288h-165l-138 192v0l-137 -192h-165zM506 1190v0v0z" />
    <glyph glyph-name="edieresis" unicode="&#xeb;" 
d="M310 466v0q0 -202 50 -277q50 -74 156 -74q77 0 125 54q48 55 53 145h184q0 -157 -94 -247q-94 -89 -262 -89q-240 0 -316 148q-75 149 -75 381q0 310 89 432q90 123 303 123q202 0 282 -113q81 -112 81 -374v-109h-576zM310 593h397v0q0 215 -63 292q-40 50 -128 50
q-112 0 -159 -75t-47 -267zM506 1190v0v0zM579 0v0v0zM235 1419h189v-213h-189v213zM584 1419h189v-213h-189v213zM506 1190v0v0z" />
    <glyph glyph-name="igrave" unicode="&#xec;" horiz-adv-x="455" 
d="M144 1040h168v-1040h-168v1040zM230 1190v0v0zM0 1062v0v0zM267 1190l-262 288h224l176 -288h-138zM230 1190v0v0z" />
    <glyph glyph-name="iacute" unicode="&#xed;" horiz-adv-x="455" 
d="M144 1040h168v-1040h-168v1040zM230 1190v0v0zM0 1062v0v0zM55 1190l176 288h224l-262 -288h-138zM230 1190v0v0z" />
    <glyph glyph-name="icircumflex" unicode="&#xee;" horiz-adv-x="455" 
d="M144 1040h168v-1040h-168v1040zM230 1190v0v0zM0 1062v0v0zM-80 1190l208 288h189l208 -288h-165l-138 192v0l-137 -192h-165zM230 1190v0v0z" />
    <glyph glyph-name="idieresis" unicode="&#xef;" horiz-adv-x="455" 
d="M144 1040h168v-1040h-168v1040zM230 1190v0v0zM0 1062v0v0zM-41 1419h189v-213h-189v213zM308 1419h189v-213h-189v213zM230 1190v0v0z" />
    <glyph glyph-name="eth" unicode="&#xf0;" 
d="M386 1327v0q-80 64 -172 112l113 97q107 -51 203 -129v0l194 111l60 -67l-190 -108v0q176 -191 243 -369q68 -178 68 -474q0 -288 -90 -405q-89 -117 -300 -117q-222 0 -310 125q-87 125 -87 406q0 307 86 419t282 112q100 0 186 -79q-44 146 -214 310v0l-178 -103
l-63 62zM297 574q0 -260 44 -360q44 -99 174 -99q123 0 167 101t44 358q0 182 -53 255q-53 74 -160 74q-112 0 -164 -74t-52 -255z" />
    <glyph glyph-name="ntilde" unicode="&#xf1;" 
d="M315 0h-168v857q0 75 -5 183h179l-6 -138q46 89 116 124q71 36 168 36q143 0 209 -76q67 -75 67 -260v-726h-168v723q0 202 -179 202q-213 0 -213 -293v-632zM528 1190v0v0zM522 0v0v0zM174 1184q14 109 66 164t147 55q58 0 151 -38q94 -38 135 -38q48 0 72 24
q24 25 28 69h103q-7 -95 -67 -159t-144 -64q-50 0 -153 38t-146 38q-38 0 -66 -27t-32 -62h-94zM528 1190v0v0z" />
    <glyph glyph-name="ograve" unicode="&#xf2;" 
d="M118 507q0 323 93 439q94 116 304 116q220 0 305 -127q85 -126 85 -411q0 -305 -88 -426q-88 -120 -302 -120q-208 0 -303 112q-94 113 -94 417zM297 574q0 -260 43 -360q43 -99 175 -99q123 0 167 101t44 358q0 205 -56 278t-157 73q-114 0 -165 -79q-51 -78 -51 -272z
M512 1190v0v0zM549 1190l-262 288h224l176 -288h-138zM512 1190v0v0z" />
    <glyph glyph-name="oacute" unicode="&#xf3;" 
d="M118 507q0 323 93 439q94 116 304 116q220 0 305 -127q85 -126 85 -411q0 -305 -88 -426q-88 -120 -302 -120q-208 0 -303 112q-94 113 -94 417zM297 574q0 -260 43 -360q43 -99 175 -99q123 0 167 101t44 358q0 205 -56 278t-157 73q-114 0 -165 -79q-51 -78 -51 -272z
M512 1190v0v0zM337 1190l176 288h224l-262 -288h-138zM512 1190v0v0z" />
    <glyph glyph-name="ocircumflex" unicode="&#xf4;" 
d="M118 507q0 323 93 439q94 116 304 116q220 0 305 -127q85 -126 85 -411q0 -305 -88 -426q-88 -120 -302 -120q-208 0 -303 112q-94 113 -94 417zM297 574q0 -260 43 -360q43 -99 175 -99q123 0 167 101t44 358q0 205 -56 278t-157 73q-114 0 -165 -79q-51 -78 -51 -272z
M512 1190v0v0zM202 1190l208 288h189l208 -288h-165l-138 192v0l-137 -192h-165zM512 1190v0v0z" />
    <glyph glyph-name="otilde" unicode="&#xf5;" 
d="M118 507q0 323 93 439q94 116 304 116q220 0 305 -127q85 -126 85 -411q0 -305 -88 -426q-88 -120 -302 -120q-208 0 -303 112q-94 113 -94 417zM297 574q0 -260 43 -360q43 -99 175 -99q123 0 167 101t44 358q0 205 -56 278t-157 73q-114 0 -165 -79q-51 -78 -51 -272z
M512 1190v0v0zM158 1184q14 109 66 164t147 55q58 0 151 -38q94 -38 135 -38q48 0 72 24q24 25 28 69h103q-7 -95 -67 -159t-144 -64q-50 0 -153 38t-146 38q-38 0 -66 -27t-32 -62h-94zM512 1190v0v0z" />
    <glyph glyph-name="odieresis" unicode="&#xf6;" 
d="M118 507q0 323 93 439q94 116 304 116q220 0 305 -127q85 -126 85 -411q0 -305 -88 -426q-88 -120 -302 -120q-208 0 -303 112q-94 113 -94 417zM297 574q0 -260 43 -360q43 -99 175 -99q123 0 167 101t44 358q0 205 -56 278t-157 73q-114 0 -165 -79q-51 -78 -51 -272z
M512 1190v0v0zM241 1419h189v-213h-189v213zM590 1419h189v-213h-189v213zM512 1190v0v0z" />
    <glyph glyph-name="divide" unicode="&#xf7;" 
d="M407 820v208h192v-208h-192zM919 453h-832v127h832v-127zM407 5v208h192v-208h-192z" />
    <glyph glyph-name="oslash" unicode="&#xf8;" 
d="M189 139v0q-71 125 -71 375q0 297 84 422q84 126 312 126q178 0 271 -87v0l99 135l66 -42l-115 -159v0q70 -116 70 -385q0 -305 -89 -426q-88 -120 -305 -120q-194 0 -280 85v0l-95 -133l-63 46zM711 736v0l-371 -521v0q46 -100 175 -100q123 0 167 101q44 102 44 359
q0 94 -15 161zM314 308v0l369 522v0q-47 95 -169 95q-114 0 -166 -79q-51 -78 -51 -273q0 -175 17 -265z" />
    <glyph glyph-name="ugrave" unicode="&#xf9;" 
d="M155 1040h168v-723q0 -212 173 -212q101 0 152 74t51 163v698h168v-857q0 -76 5 -183h-173v138q-79 -160 -270 -160q-128 0 -201 66q-73 67 -73 195v801zM502 1190v0v0zM816 0v0v0zM0 1062v0v0zM539 1190l-262 288h224l176 -288h-138zM502 1190v0v0z" />
    <glyph glyph-name="uacute" unicode="&#xfa;" 
d="M155 1040h168v-723q0 -212 173 -212q101 0 152 74t51 163v698h168v-857q0 -76 5 -183h-173v138q-79 -160 -270 -160q-128 0 -201 66q-73 67 -73 195v801zM502 1190v0v0zM816 0v0v0zM0 1062v0v0zM327 1190l176 288h224l-262 -288h-138zM502 1190v0v0z" />
    <glyph glyph-name="ucircumflex" unicode="&#xfb;" 
d="M155 1040h168v-723q0 -212 173 -212q101 0 152 74t51 163v698h168v-857q0 -76 5 -183h-173v138q-79 -160 -270 -160q-128 0 -201 66q-73 67 -73 195v801zM502 1190v0v0zM816 0v0v0zM0 1062v0v0zM192 1190l208 288h189l208 -288h-165l-138 192v0l-137 -192h-165zM502 1190
v0v0z" />
    <glyph glyph-name="udieresis" unicode="&#xfc;" 
d="M155 1040h168v-723q0 -212 173 -212q101 0 152 74t51 163v698h168v-857q0 -76 5 -183h-173v138q-79 -160 -270 -160q-128 0 -201 66q-73 67 -73 195v801zM502 1190v0v0zM816 0v0v0zM0 1062v0v0zM231 1419h189v-213h-189v213zM580 1419h189v-213h-189v213zM502 1190v0v0z
" />
    <glyph glyph-name="yacute" unicode="&#xfd;" horiz-adv-x="909" 
d="M16 1040h194l254 -840v0l251 840h181l-473 -1424h-173l115 384v0zM484 1190v0v0zM0 1062v0v0zM309 1190l176 288h224l-262 -288h-138zM484 1190v0v0z" />
    <glyph glyph-name="thorn" unicode="&#xfe;" 
d="M310 902q73 160 243 160q174 0 253 -124q80 -124 80 -418q0 -305 -84 -424q-84 -118 -254 -118q-169 0 -238 144v-506h-168v1856h168v-570zM310 526q0 -269 51 -340q52 -71 143 -71q117 0 160 91t43 342q0 200 -45 288q-45 89 -164 89q-97 0 -143 -84q-45 -83 -45 -315z
" />
    <glyph glyph-name="ydieresis" unicode="&#xff;" horiz-adv-x="909" 
d="M16 1040h194l254 -840v0l251 840h181l-473 -1424h-173l115 384v0zM484 1190v0v0zM0 1062v0v0zM213 1419h189v-213h-189v213zM562 1419h189v-213h-189v213zM484 1190v0v0z" />
    <glyph glyph-name="Amacron" unicode="&#x100;" horiz-adv-x="1251" 
d="M30 0l464 1472h241l480 -1472h-211l-106 353v0h-570v0l-109 -353h-189zM377 517v0h468v0l-238 788v0zM632 1663v0v0zM1183 0v0v0zM0 1503v0v0zM350 1824h560v-113h-560v113zM632 1663v0v0z" />
    <glyph glyph-name="amacron" unicode="&#x101;" 
d="M158 758q6 304 347 304t341 -315v-511q0 -124 24 -236h-187v155q-72 -177 -259 -177q-290 0 -290 339q0 158 104 243t310 85h130v89q0 201 -177 201q-71 0 -118 -44q-46 -43 -46 -133h-179zM678 518h-37q-191 0 -265 -50t-74 -159q0 -90 44 -142t116 -52q102 0 159 80
t57 323v0zM514 1190v0v0zM824 0v0v0zM232 1351h560v-113h-560v113zM514 1190v0v0z" />
    <glyph glyph-name="Abreve" unicode="&#x102;" horiz-adv-x="1251" 
d="M30 0l464 1472h241l480 -1472h-211l-106 353v0h-570v0l-109 -353h-189zM377 517v0h468v0l-238 788v0zM632 1663v0v0zM1183 0v0v0zM0 1503v0v0zM844 1952h100q-19 -134 -99 -204q-79 -69 -210 -69q-301 0 -319 273h100q30 -160 216 -160q179 0 212 160zM632 1663v0v0z" />
    <glyph glyph-name="abreve" unicode="&#x103;" 
d="M158 758q6 304 347 304t341 -315v-511q0 -124 24 -236h-187v155q-72 -177 -259 -177q-290 0 -290 339q0 158 104 243t310 85h130v89q0 201 -177 201q-71 0 -118 -44q-46 -43 -46 -133h-179zM678 518h-37q-191 0 -265 -50t-74 -159q0 -90 44 -142t116 -52q102 0 159 80
t57 323v0zM514 1190v0v0zM824 0v0v0zM726 1479h100q-19 -134 -99 -204q-79 -69 -210 -69q-301 0 -319 273h100q30 -160 216 -160q179 0 212 160zM514 1190v0v0z" />
    <glyph glyph-name="Aogonek" unicode="&#x104;" horiz-adv-x="1251" 
d="M30 0l464 1472h241l480 -1472h-211l-106 353v0h-570v0l-109 -353h-189zM377 517v0h468v0l-238 788v0zM632 1663v0v0zM1183 0v0v0zM0 1503v0v0zM1099 0h127q-200 -81 -200 -174q0 -44 25 -71q25 -26 70 -26q29 0 74 10q45 11 103 33v-111q-108 -45 -217 -45q-97 0 -160 48
q-63 49 -63 129q0 75 79 129q80 55 162 78zM1183 0v0v0z" />
    <glyph glyph-name="aogonek" unicode="&#x105;" 
d="M158 758q6 304 347 304t341 -315v-511q0 -124 24 -236h-187v155q-72 -177 -259 -177q-290 0 -290 339q0 158 104 243t310 85h130v89q0 201 -177 201q-71 0 -118 -44q-46 -43 -46 -133h-179zM678 518h-37q-191 0 -265 -50t-74 -159q0 -90 44 -142t116 -52q102 0 159 80
t57 323v0zM514 1190v0v0zM824 0v0v0zM740 0h127q-200 -81 -200 -174q0 -44 25 -71q25 -26 70 -26q29 0 74 10q45 11 103 33v-111q-108 -45 -217 -45q-97 0 -160 48q-63 49 -63 129q0 75 79 129q80 55 162 78zM824 0v0v0z" />
    <glyph glyph-name="Cacute" unicode="&#x106;" horiz-adv-x="1139" 
d="M838 433h193q0 -240 -105 -352q-104 -112 -322 -112q-217 0 -336 119q-118 120 -118 451v437q0 527 466 527q399 0 399 -339v-93h-193v49q0 224 -215 224q-118 0 -191 -75t-73 -331v-425q0 -194 54 -290q55 -95 209 -95q109 0 170 81q62 82 62 224zM616 1663v0v0zM583 0
v0v0zM441 1663l176 288h224l-262 -288h-138zM616 1663v0v0z" />
    <glyph glyph-name="cacute" unicode="&#x107;" 
d="M688 346h179q0 -174 -96 -271q-95 -97 -231 -97q-228 0 -308 135t-80 394q0 303 88 429t304 126q147 0 231 -82t84 -270v0v0h-179v0v0q0 102 -36 158q-36 57 -104 57q-110 0 -160 -79q-49 -79 -49 -272q0 -273 45 -366t159 -93q153 1 153 231zM547 1190v0v0zM459 0v0v0z
M372 1190l176 288h224l-262 -288h-138zM547 1190v0v0z" />
    <glyph glyph-name="Ccaron" unicode="&#x10c;" horiz-adv-x="1139" 
d="M838 433h193q0 -240 -105 -352q-104 -112 -322 -112q-217 0 -336 119q-118 120 -118 451v437q0 527 466 527q399 0 399 -339v-93h-193v49q0 224 -215 224q-118 0 -191 -75t-73 -331v-425q0 -194 54 -290q55 -95 209 -95q109 0 170 81q62 82 62 224zM616 1663v0v0zM583 0
v0v0zM902 1951l-208 -288h-189l-208 288h165l137 -192v0l138 192h165zM616 1663v0v0z" />
    <glyph glyph-name="ccaron" unicode="&#x10d;" 
d="M688 346h179q0 -174 -96 -271q-95 -97 -231 -97q-228 0 -308 135t-80 394q0 303 88 429t304 126q147 0 231 -82t84 -270v0v0h-179v0v0q0 102 -36 158q-36 57 -104 57q-110 0 -160 -79q-49 -79 -49 -272q0 -273 45 -366t159 -93q153 1 153 231zM547 1190v0v0zM459 0v0v0z
M833 1478l-208 -288h-189l-208 288h165l137 -192v0l138 192h165zM547 1190v0v0z" />
    <glyph glyph-name="Dcaron" unicode="&#x10e;" horiz-adv-x="1251" 
d="M171 0v1472h454q237 0 356 -142q119 -141 119 -560q0 -500 -135 -635q-134 -135 -406 -135h-388zM364 164h191q195 0 273 96q79 97 79 326v329q0 214 -73 303q-73 90 -215 90h-255v-1144zM581 1663v0v0zM0 1503v0v0zM867 1951l-208 -288h-189l-208 288h165l137 -192v0
l138 192h165zM581 1663v0v0z" />
    <glyph glyph-name="dcaron" unicode="&#x10f;" horiz-adv-x="1229" 
d="M694 918v554h168v-1472h-168v122q-72 -144 -243 -144q-179 0 -256 127t-77 415q0 315 85 428q85 114 253 114q166 0 238 -144zM297 495q0 -214 52 -297t157 -83q93 0 140 80q48 80 48 319q0 175 -19 256q-14 61 -56 108t-119 47q-120 0 -162 -91q-41 -91 -41 -339z
M991 1286v186h189v-187q0 -218 -189 -271v83q104 18 104 189h-104z" />
    <glyph glyph-name="Dcroat" unicode="&#x110;" horiz-adv-x="1251" 
d="M171 859v613h454q211 0 326 -107q149 -140 149 -595q0 -500 -135 -635q-134 -135 -406 -135h-388v744h-144v115h144zM364 859h304v-115h-304v-580h191q207 0 286 111q66 94 66 311v329q0 214 -77 308q-69 85 -211 85h-255v-449z" />
    <glyph glyph-name="dcroat" unicode="&#x111;" 
d="M694 1222h-228v107h228v143h168v-143h123v-107h-123v-1222h-168v122q-72 -144 -243 -144q-179 0 -256 128t-77 414q0 319 83 430q84 112 255 112q166 0 238 -144v304zM297 495q0 -199 48 -290q48 -90 161 -90q85 0 136 81q52 82 52 318q0 175 -19 256q-14 61 -56 108
t-119 47q-120 0 -162 -91q-41 -91 -41 -339z" />
    <glyph glyph-name="Emacron" unicode="&#x112;" 
d="M165 0v1472h769v-164h-576v-469h534v-164h-534v-511h588v-164h-781zM513 1663v0v0zM889 0v0v0zM0 1503v0v0zM231 1824h560v-113h-560v113zM513 1663v0v0z" />
    <glyph glyph-name="emacron" unicode="&#x113;" 
d="M310 466v0q0 -202 50 -277q50 -74 156 -74q77 0 125 54q48 55 53 145h184q0 -157 -94 -247q-94 -89 -262 -89q-240 0 -316 148q-75 149 -75 381q0 310 89 432q90 123 303 123q202 0 282 -113q81 -112 81 -374v-109h-576zM310 593h397v0q0 215 -63 292q-40 50 -128 50
q-112 0 -159 -75t-47 -267zM506 1190v0v0zM579 0v0v0zM224 1351h560v-113h-560v113zM506 1190v0v0z" />
    <glyph glyph-name="Edotaccent" unicode="&#x116;" 
d="M165 0v1472h769v-164h-576v-469h534v-164h-534v-511h588v-164h-781zM513 1663v0v0zM889 0v0v0zM0 1503v0v0zM415 1892h191v-213h-191v213zM513 1663v0v0z" />
    <glyph glyph-name="edotaccent" unicode="&#x117;" 
d="M310 466v0q0 -202 50 -277q50 -74 156 -74q77 0 125 54q48 55 53 145h184q0 -157 -94 -247q-94 -89 -262 -89q-240 0 -316 148q-75 149 -75 381q0 310 89 432q90 123 303 123q202 0 282 -113q81 -112 81 -374v-109h-576zM310 593h397v0q0 215 -63 292q-40 50 -128 50
q-112 0 -159 -75t-47 -267zM506 1190v0v0zM579 0v0v0zM408 1419h191v-213h-191v213zM506 1190v0v0z" />
    <glyph glyph-name="Eogonek" unicode="&#x118;" 
d="M165 0v1472h769v-164h-576v-469h534v-164h-534v-511h588v-164h-781zM513 1663v0v0zM889 0v0v0zM0 1503v0v0zM805 0h127q-200 -81 -200 -174q0 -44 25 -71q25 -26 70 -26q29 0 74 10q45 11 103 33v-111q-108 -45 -217 -45q-97 0 -160 48q-63 49 -63 129q0 75 79 129
q80 55 162 78zM889 0v0v0z" />
    <glyph glyph-name="eogonek" unicode="&#x119;" 
d="M310 466v0q0 -202 50 -277q50 -74 156 -74q77 0 125 54q48 55 53 145h184q0 -157 -94 -247q-94 -89 -262 -89q-240 0 -316 148q-75 149 -75 381q0 310 89 432q90 123 303 123q202 0 282 -113q81 -112 81 -374v-109h-576zM310 593h397v0q0 215 -63 292q-40 50 -128 50
q-112 0 -159 -75t-47 -267zM506 1190v0v0zM579 0v0v0zM495 0h127q-200 -81 -200 -174q0 -44 25 -71q25 -26 70 -26q29 0 74 10q45 11 103 33v-111q-108 -45 -217 -45q-97 0 -160 48q-63 49 -63 129q0 75 79 129q80 55 162 78zM579 0v0v0z" />
    <glyph glyph-name="Ecaron" unicode="&#x11a;" 
d="M165 0v1472h769v-164h-576v-469h534v-164h-534v-511h588v-164h-781zM513 1663v0v0zM889 0v0v0zM0 1503v0v0zM799 1951l-208 -288h-189l-208 288h165l137 -192v0l138 192h165zM513 1663v0v0z" />
    <glyph glyph-name="ecaron" unicode="&#x11b;" 
d="M310 466v0q0 -202 50 -277q50 -74 156 -74q77 0 125 54q48 55 53 145h184q0 -157 -94 -247q-94 -89 -262 -89q-240 0 -316 148q-75 149 -75 381q0 310 89 432q90 123 303 123q202 0 282 -113q81 -112 81 -374v-109h-576zM310 593h397v0q0 215 -63 292q-40 50 -128 50
q-112 0 -159 -75t-47 -267zM506 1190v0v0zM579 0v0v0zM792 1478l-208 -288h-189l-208 288h165l137 -192v0l138 192h165zM506 1190v0v0z" />
    <glyph glyph-name="Gbreve" unicode="&#x11e;" horiz-adv-x="1251" 
d="M596 634v164h464v-719q-192 -110 -449 -110q-232 0 -348 129t-116 440v480q0 485 471 485q442 0 442 -372v-60h-193q0 273 -255 273q-149 0 -211 -91q-61 -91 -61 -234v-506q0 -238 74 -312q74 -73 185 -73q181 0 268 65v441h-271zM607 1663v0v0zM607 0v0v0zM819 1952
h100q-19 -134 -99 -204q-79 -69 -210 -69q-301 0 -319 273h100q30 -160 216 -160q179 0 212 160zM607 1663v0v0z" />
    <glyph glyph-name="gbreve" unicode="&#x11f;" 
d="M174 -112h192v0q0 -78 49 -112q49 -33 104 -33q178 0 178 174v211q-75 -128 -234 -128q-205 0 -282 175q-55 126 -55 373q0 514 326 514q171 0 245 -160v138h168v-1141q0 -283 -359 -283q-164 0 -248 71q-84 72 -84 169v32zM305 549q0 -223 48 -318q48 -94 152 -94
q96 0 146 76q51 77 51 312q0 237 -47 318q-47 82 -147 82q-113 0 -158 -94q-45 -93 -45 -282zM493 1190v0v0zM705 1479h100q-19 -134 -99 -204q-79 -69 -210 -69q-301 0 -319 273h100q30 -160 216 -160q179 0 212 160zM493 1190v0v0z" />
    <glyph glyph-name="Gcommaaccent" unicode="&#x122;" horiz-adv-x="1251" 
d="M596 634v164h464v-719q-192 -110 -449 -110q-232 0 -348 129t-116 440v480q0 485 471 485q442 0 442 -372v-60h-193q0 273 -255 273q-149 0 -211 -91q-61 -91 -61 -234v-506q0 -238 74 -312q74 -73 185 -73q181 0 268 65v441h-271zM607 1663v0v0zM607 0v0v0zM537 -320
v160h144v-155q0 -186 -144 -229v67q73 16 73 157h-73zM607 0v0v0z" />
    <glyph glyph-name="gcommaaccent" unicode="&#x123;" 
d="M174 -112h192v0q0 -78 49 -112q49 -33 104 -33q178 0 178 174v211q-75 -128 -234 -128q-205 0 -282 175q-55 126 -55 373q0 514 326 514q171 0 245 -160v138h168v-1141q0 -283 -359 -283q-164 0 -248 71q-84 72 -84 169v32zM305 549q0 -223 48 -318q48 -94 152 -94
q96 0 146 76q51 77 51 312q0 237 -47 318q-47 82 -147 82q-113 0 -158 -94q-45 -93 -45 -282zM493 1190v0v0zM549 1350v-160h-144v154q0 186 144 230v-70q-73 -17 -73 -154h73zM493 1190v0v0z" />
    <glyph glyph-name="Imacron" unicode="&#x12a;" horiz-adv-x="569" 
d="M189 1472h193v-1472h-193v1472zM286 1663v0v0zM328 0v0v0zM0 1503v0v0zM4 1824h560v-113h-560v113zM286 1663v0v0z" />
    <glyph glyph-name="imacron" unicode="&#x12b;" horiz-adv-x="455" 
d="M144 1040h168v-1040h-168v1040zM230 1190v0v0zM0 1062v0v0zM-52 1351h560v-113h-560v113zM230 1190v0v0z" />
    <glyph glyph-name="Iogonek" unicode="&#x12e;" horiz-adv-x="569" 
d="M189 1472h193v-1472h-193v1472zM286 1663v0v0zM328 0v0v0zM0 1503v0v0zM244 0h127q-200 -81 -200 -174q0 -44 25 -71q25 -26 70 -26q29 0 74 10q45 11 103 33v-111q-108 -45 -217 -45q-97 0 -160 48q-63 49 -63 129q0 75 79 129q80 55 162 78zM328 0v0v0z" />
    <glyph glyph-name="iogonek" unicode="&#x12f;" horiz-adv-x="455" 
d="M144 1040h168v-1040h-168v1040zM133 1493h190v-181h-190v181zM265 0v0v0zM181 0h127q-200 -81 -200 -174q0 -44 25 -71q25 -26 70 -26q29 0 74 10q45 11 103 33v-111q-108 -45 -217 -45q-97 0 -160 48q-63 49 -63 129q0 75 79 129q80 55 162 78zM265 0v0v0z" />
    <glyph glyph-name="Idotaccent" unicode="&#x130;" horiz-adv-x="569" 
d="M189 1472h193v-1472h-193v1472zM286 1663v0v0zM328 0v0v0zM0 1503v0v0zM188 1892h191v-213h-191v213zM286 1663v0v0z" />
    <glyph glyph-name="dotlessi" unicode="&#x131;" horiz-adv-x="455" 
d="M144 1040h168v-1040h-168v1040zM230 1190v0v0zM0 1062v0v0z" />
    <glyph glyph-name="Kcommaaccent" unicode="&#x136;" horiz-adv-x="1139" 
d="M358 817v0l522 655h214l-537 -667l567 -805h-241l-525 776v0v-776h-193v1472h193v-655zM637 0v0v0zM567 -320v160h144v-155q0 -186 -144 -229v67q73 16 73 157h-73zM637 0v0v0z" />
    <glyph glyph-name="kcommaaccent" unicode="&#x137;" horiz-adv-x="909" 
d="M315 589v0l323 451h205l-347 -447l407 -593h-213l-375 581v0v-581h-168v1472h168v-883zM513 0v0v0zM443 -320v160h144v-155q0 -186 -144 -229v67q73 16 73 157h-73zM513 0v0v0z" />
    <glyph glyph-name="Lacute" unicode="&#x139;" horiz-adv-x="909" 
d="M165 1472h193v-1308h544v-164h-737v1472zM343 1663v0v0zM585 0v0v0zM0 1503v0v0zM168 1663l176 288h224l-262 -288h-138zM343 1663v0v0z" />
    <glyph glyph-name="lacute" unicode="&#x13a;" horiz-adv-x="455" 
d="M144 0v1472h168v-1472h-168zM230 1664v0v0zM230 0v0v0zM55 1664l176 288h224l-262 -288h-138zM230 1664v0v0z" />
    <glyph glyph-name="Lcommaaccent" unicode="&#x13b;" horiz-adv-x="909" 
d="M165 1472h193v-1308h544v-164h-737v1472zM343 1663v0v0zM585 0v0v0zM0 1503v0v0zM515 -320v160h144v-155q0 -186 -144 -229v67q73 16 73 157h-73zM585 0v0v0z" />
    <glyph glyph-name="lcommaaccent" unicode="&#x13c;" horiz-adv-x="455" 
d="M144 0v1472h168v-1472h-168zM230 1664v0v0zM230 0v0v0zM160 -320v160h144v-155q0 -186 -144 -229v67q73 16 73 157h-73zM230 0v0v0z" />
    <glyph glyph-name="Lcaron" unicode="&#x13d;" horiz-adv-x="909" 
d="M165 1472h193v-1308h544v-164h-737v1472zM343 1663v0v0zM585 0v0v0zM0 1503v0v0zM602 1286v186h189v-187q0 -218 -189 -271v83q104 18 104 189h-104z" />
    <glyph glyph-name="lcaron" unicode="&#x13e;" horiz-adv-x="655" 
d="M144 0v1472h168v-1472h-168zM230 1664v0v0zM230 0v0v0zM432 1286v186h189v-187q0 -218 -189 -271v83q104 18 104 189h-104z" />
    <glyph glyph-name="Lslash" unicode="&#x141;" horiz-adv-x="909" 
d="M165 1472h193v-504v0l153 83l45 -79l-198 -112v0v-696h544v-164h-737v749v0l-144 -82l-45 79l189 108v0v618z" />
    <glyph glyph-name="lslash" unicode="&#x142;" horiz-adv-x="455" 
d="M144 0v0v771v0l-163 -94l-42 71l205 121v0v603v0h168v0v-505v0l163 94l42 -71l-205 -121v0v-869v0h-168z" />
    <glyph glyph-name="Nacute" unicode="&#x143;" horiz-adv-x="1366" 
d="M177 1472h268l580 -1271v0v1271h168v-1472h-259l-589 1282v0v-1282h-168v1472zM705 1663v0v0zM665 0v0v0zM0 1503v0v0zM530 1663l176 288h224l-262 -288h-138zM705 1663v0v0z" />
    <glyph glyph-name="nacute" unicode="&#x144;" 
d="M315 0h-168v857q0 75 -5 183h179l-6 -138q46 89 116 124q71 36 168 36q143 0 209 -76q67 -75 67 -260v-726h-168v723q0 202 -179 202q-213 0 -213 -293v-632zM528 1190v0v0zM522 0v0v0zM353 1190l176 288h224l-262 -288h-138zM528 1190v0v0z" />
    <glyph glyph-name="Ncommaaccent" unicode="&#x145;" horiz-adv-x="1366" 
d="M177 1472h268l580 -1271v0v1271h168v-1472h-259l-589 1282v0v-1282h-168v1472zM705 1663v0v0zM665 0v0v0zM0 1503v0v0zM595 -320v160h144v-155q0 -186 -144 -229v67q73 16 73 157h-73zM665 0v0v0z" />
    <glyph glyph-name="ncommaaccent" unicode="&#x146;" 
d="M315 0h-168v857q0 75 -5 183h179l-6 -138q46 89 116 124q71 36 168 36q143 0 209 -76q67 -75 67 -260v-726h-168v723q0 202 -179 202q-213 0 -213 -293v-632zM528 1190v0v0zM522 0v0v0zM452 -320v160h144v-155q0 -186 -144 -229v67q73 16 73 157h-73zM522 0v0v0z" />
    <glyph glyph-name="Ncaron" unicode="&#x147;" horiz-adv-x="1366" 
d="M177 1472h268l580 -1271v0v1271h168v-1472h-259l-589 1282v0v-1282h-168v1472zM705 1663v0v0zM665 0v0v0zM0 1503v0v0zM991 1951l-208 -288h-189l-208 288h165l137 -192v0l138 192h165zM705 1663v0v0z" />
    <glyph glyph-name="ncaron" unicode="&#x148;" 
d="M315 0h-168v857q0 75 -5 183h179l-6 -138q46 89 116 124q71 36 168 36q143 0 209 -76q67 -75 67 -260v-726h-168v723q0 202 -179 202q-213 0 -213 -293v-632zM528 1190v0v0zM522 0v0v0zM814 1478l-208 -288h-189l-208 288h165l137 -192v0l138 192h165zM528 1190v0v0z" />
    <glyph glyph-name="Omacron" unicode="&#x14c;" horiz-adv-x="1251" 
d="M159 532v485q0 231 118 358q118 128 347 128q228 0 346 -128q118 -127 118 -354v-489q0 -289 -111 -426t-350 -137q-253 0 -361 141q-107 142 -107 422zM352 1021v-506q0 -196 58 -292q58 -95 214 -95q142 0 206 88q65 88 65 307v508q0 155 -73 234t-199 79
q-271 0 -271 -323zM634 1663v0v0zM352 1824h560v-113h-560v113zM634 1663v0v0z" />
    <glyph glyph-name="omacron" unicode="&#x14d;" 
d="M118 507q0 323 93 439q94 116 304 116q220 0 305 -127q85 -126 85 -411q0 -305 -88 -426q-88 -120 -302 -120q-208 0 -303 112q-94 113 -94 417zM297 574q0 -260 43 -360q43 -99 175 -99q123 0 167 101t44 358q0 205 -56 278t-157 73q-114 0 -165 -79q-51 -78 -51 -272z
M512 1190v0v0zM230 1351h560v-113h-560v113zM512 1190v0v0z" />
    <glyph glyph-name="Ohungarumlaut" unicode="&#x150;" horiz-adv-x="1251" 
d="M159 532v485q0 231 118 358q118 128 347 128q228 0 346 -128q118 -127 118 -354v-489q0 -289 -111 -426t-350 -137q-253 0 -361 141q-107 142 -107 422zM352 1021v-506q0 -196 58 -292q58 -95 214 -95q142 0 206 88q65 88 65 307v508q0 155 -73 234t-199 79
q-271 0 -271 -323zM634 1663v0v0zM319 1663l176 288h224l-262 -288h-138zM687 1663l176 288h224l-262 -288h-138zM634 1663v0v0z" />
    <glyph glyph-name="ohungarumlaut" unicode="&#x151;" 
d="M118 507q0 323 93 439q94 116 304 116q220 0 305 -127q85 -126 85 -411q0 -305 -88 -426q-88 -120 -302 -120q-208 0 -303 112q-94 113 -94 417zM297 574q0 -260 43 -360q43 -99 175 -99q123 0 167 101t44 358q0 205 -56 278t-157 73q-114 0 -165 -79q-51 -78 -51 -272z
M512 1190v0v0zM197 1190l176 288h224l-262 -288h-138zM565 1190l176 288h224l-262 -288h-138zM512 1190v0v0z" />
    <glyph glyph-name="OE" unicode="&#x152;" horiz-adv-x="1706" 
d="M1652 0h-1002v0q-272 0 -388 133q-115 133 -115 410v354q0 303 114 439t353 136v0h1026v-164h-580v-469h538v-164h-538v-511h592v-164zM867 1308h-274q-132 0 -193 -86q-60 -86 -60 -324v-345q0 -197 59 -293t217 -96h251v1144z" />
    <glyph glyph-name="oe" unicode="&#x153;" horiz-adv-x="1593" 
d="M806 886q59 176 302 176q193 0 279 -113q86 -112 86 -374v-109h-576v0q0 -186 43 -269q43 -82 163 -82q82 0 127 50q46 51 51 149h184q0 -149 -94 -243q-94 -93 -264 -93q-248 0 -311 160q-80 -160 -283 -160q-238 0 -317 136q-78 136 -78 393q0 318 97 436
q97 119 298 119q128 0 202 -41t91 -135zM297 574q0 -260 43 -360q43 -99 175 -99q123 0 167 101t44 358q0 198 -53 274q-53 77 -160 77q-114 0 -165 -79q-51 -78 -51 -272zM897 593h397v0q0 172 -38 252q-37 80 -162 80q-109 0 -153 -75t-44 -257z" />
    <glyph glyph-name="Racute" unicode="&#x154;" horiz-adv-x="1139" 
d="M162 0v1472h507q169 0 263 -97q95 -96 95 -271q0 -283 -277 -341q119 -12 177 -78q59 -66 66 -232q9 -287 55 -453h-196q-29 44 -40 192q-10 148 -17 293q-11 190 -217 190h-223v-675h-193zM355 839h277q93 0 147 67q55 67 55 178q0 91 -49 157q-49 67 -146 67h-284v-469
zM564 1663v0v0zM595 0v0v0zM0 1503v0v0zM389 1663l176 288h224l-262 -288h-138zM564 1663v0v0z" />
    <glyph glyph-name="racute" unicode="&#x155;" horiz-adv-x="682" 
d="M155 0v1040h168v-163v0q66 185 285 185h35v0v-175q-44 10 -90 10q-230 0 -230 -284v-613h-168zM401 1190v0v0zM237 0v0v0zM226 1190l176 288h224l-262 -288h-138zM401 1190v0v0z" />
    <glyph glyph-name="Rcommaaccent" unicode="&#x156;" horiz-adv-x="1139" 
d="M162 0v1472h507q169 0 263 -97q95 -96 95 -271q0 -283 -277 -341q119 -12 177 -78q59 -66 66 -232q9 -287 55 -453h-196q-29 44 -40 192q-10 148 -17 293q-11 190 -217 190h-223v-675h-193zM355 839h277q93 0 147 67q55 67 55 178q0 91 -49 157q-49 67 -146 67h-284v-469
zM564 1663v0v0zM595 0v0v0zM0 1503v0v0zM525 -320v160h144v-155q0 -186 -144 -229v67q73 16 73 157h-73zM595 0v0v0z" />
    <glyph glyph-name="rcommaaccent" unicode="&#x157;" horiz-adv-x="682" 
d="M155 0v1040h168v-163v0q66 185 285 185h35v0v-175q-44 10 -90 10q-230 0 -230 -284v-613h-168zM401 1190v0v0zM237 0v0v0zM167 -320v160h144v-155q0 -186 -144 -229v67q73 16 73 157h-73zM237 0v0v0z" />
    <glyph glyph-name="Rcaron" unicode="&#x158;" horiz-adv-x="1139" 
d="M162 0v1472h507q169 0 263 -97q95 -96 95 -271q0 -283 -277 -341q119 -12 177 -78q59 -66 66 -232q9 -287 55 -453h-196q-29 44 -40 192q-10 148 -17 293q-11 190 -217 190h-223v-675h-193zM355 839h277q93 0 147 67q55 67 55 178q0 91 -49 157q-49 67 -146 67h-284v-469
zM564 1663v0v0zM595 0v0v0zM0 1503v0v0zM850 1951l-208 -288h-189l-208 288h165l137 -192v0l138 192h165zM564 1663v0v0z" />
    <glyph glyph-name="rcaron" unicode="&#x159;" horiz-adv-x="682" 
d="M155 0v1040h168v-163v0q66 185 285 185h35v0v-175q-44 10 -90 10q-230 0 -230 -284v-613h-168zM401 1190v0v0zM237 0v0v0zM687 1478l-208 -288h-189l-208 288h165l137 -192v0l138 192h165zM401 1190v0v0z" />
    <glyph glyph-name="Sacute" unicode="&#x15a;" horiz-adv-x="1139" 
d="M128 433h193v-52q0 -114 66 -181t195 -67q111 0 180 60t69 175q0 92 -69 158q-68 66 -241 152q-212 109 -287 202q-74 94 -74 224q0 179 115 289t322 110q205 0 308 -100t103 -275v-57h-193v0q0 268 -229 268q-109 0 -171 -58t-62 -156q0 -103 94 -182q58 -50 234 -138
q177 -88 253 -179q90 -108 90 -251q0 -406 -473 -406q-202 0 -313 105q-110 106 -110 305v54zM609 1663v0v0zM561 0v0v0zM434 1663l176 288h224l-262 -288h-138zM609 1663v0v0z" />
    <glyph glyph-name="sacute" unicode="&#x15b;" horiz-adv-x="909" 
d="M104 314h192v0q0 -199 165 -199q87 0 133 37q46 38 46 118q0 56 -52 95q-52 40 -156 87q-146 66 -225 140q-79 75 -79 179q0 137 95 214t263 77q157 0 241 -68q84 -67 84 -163v-57h-192v0q0 161 -154 161q-70 0 -114 -38t-44 -104q0 -60 78 -107q78 -46 156 -80
q132 -62 205 -132t73 -174q0 -322 -358 -322q-357 0 -357 336v0zM507 1190v0v0zM446 0v0v0zM332 1190l176 288h224l-262 -288h-138zM507 1190v0v0z" />
    <glyph glyph-name="Scedilla" unicode="&#x15e;" horiz-adv-x="1139" 
d="M128 433h193v-52q0 -114 66 -181t195 -67q111 0 180 60t69 175q0 92 -69 158q-68 66 -241 152q-212 109 -287 202q-74 94 -74 224q0 179 115 289t322 110q205 0 308 -100t103 -275v-57h-193v0q0 268 -229 268q-109 0 -171 -58t-62 -156q0 -103 94 -182q58 -50 234 -138
q177 -88 253 -179q90 -108 90 -251q0 -406 -473 -406q-202 0 -313 105q-110 106 -110 305v54zM609 1663v0v0zM561 0v0v0zM370 -406l35 83q75 -31 131 -31q110 0 110 75q0 84 -97 84q-7 0 -80 -17l-35 39l130 173h97l-100 -129q37 17 72 17q75 0 122 -43q47 -42 47 -112
q0 -82 -67 -133q-66 -51 -166 -51q-99 0 -199 45zM561 0v0v0z" />
    <glyph glyph-name="scedilla" unicode="&#x15f;" horiz-adv-x="909" 
d="M104 314h192v0q0 -199 165 -199q87 0 133 37q46 38 46 118q0 56 -52 95q-52 40 -156 87q-146 66 -225 140q-79 75 -79 179q0 137 95 214t263 77q157 0 241 -68q84 -67 84 -163v-57h-192v0q0 161 -154 161q-70 0 -114 -38t-44 -104q0 -60 78 -107q78 -46 156 -80
q132 -62 205 -132t73 -174q0 -322 -358 -322q-357 0 -357 336v0zM507 1190v0v0zM446 0v0v0zM255 -406l35 83q75 -31 131 -31q110 0 110 75q0 84 -97 84q-7 0 -80 -17l-35 39l130 173h97l-100 -129q37 17 72 17q75 0 122 -43q47 -42 47 -112q0 -82 -67 -133q-66 -51 -166 -51
q-99 0 -199 45zM446 0v0v0z" />
    <glyph glyph-name="Scaron" unicode="&#x160;" horiz-adv-x="1139" 
d="M128 433h193v-52q0 -114 66 -181t195 -67q111 0 180 60t69 175q0 92 -69 158q-68 66 -241 152q-212 109 -287 202q-74 94 -74 224q0 179 115 289t322 110q205 0 308 -100t103 -275v-57h-193v0q0 268 -229 268q-109 0 -171 -58t-62 -156q0 -103 94 -182q58 -50 234 -138
q177 -88 253 -179q90 -108 90 -251q0 -406 -473 -406q-202 0 -313 105q-110 106 -110 305v54zM609 1663v0v0zM561 0v0v0zM895 1951l-208 -288h-189l-208 288h165l137 -192v0l138 192h165zM609 1663v0v0z" />
    <glyph glyph-name="scaron" unicode="&#x161;" horiz-adv-x="909" 
d="M104 314h192v0q0 -199 165 -199q87 0 133 37q46 38 46 118q0 56 -52 95q-52 40 -156 87q-146 66 -225 140q-79 75 -79 179q0 137 95 214t263 77q157 0 241 -68q84 -67 84 -163v-57h-192v0q0 161 -154 161q-70 0 -114 -38t-44 -104q0 -60 78 -107q78 -46 156 -80
q132 -62 205 -132t73 -174q0 -322 -358 -322q-357 0 -357 336v0zM507 1190v0v0zM446 0v0v0zM793 1478l-208 -288h-189l-208 288h165l137 -192v0l138 192h165zM507 1190v0v0z" />
    <glyph glyph-name="Tcommaaccent" unicode="&#x162;" 
d="M32 1472h961v-164h-384v-1308h-193v1308h-384v164zM513 1663v0v0zM513 0v0v0zM0 1503v0v0zM443 -320v160h144v-155q0 -186 -144 -229v67q73 16 73 157h-73zM513 0v0v0z" />
    <glyph glyph-name="tcommaaccent" unicode="&#x163;" horiz-adv-x="569" 
d="M-6 913v127h171v197l168 75v-272h224v-127h-224v-664q0 -65 37 -100q38 -34 113 -34q28 0 78 8v-127q-60 -18 -166 -18q-230 0 -230 190v745h-171zM276 0v0v0zM206 -320v160h144v-155q0 -186 -144 -229v67q73 16 73 157h-73zM276 0v0v0z" />
    <glyph glyph-name="Tcaron" unicode="&#x164;" 
d="M32 1472h961v-164h-384v-1308h-193v1308h-384v164zM513 1663v0v0zM513 0v0v0zM0 1503v0v0zM799 1951l-208 -288h-189l-208 288h165l137 -192v0l138 192h165zM513 1663v0v0z" />
    <glyph glyph-name="tcaron" unicode="&#x165;" horiz-adv-x="774" 
d="M-6 913v127h171v197l168 75v-272h224v-127h-224v-664q0 -65 37 -100q38 -34 113 -34q28 0 78 8v-127q-60 -18 -166 -18q-230 0 -230 190v745h-171zM276 0v0v0zM483 1407v186h189v-187q0 -218 -189 -271v83q104 18 104 189h-104z" />
    <glyph glyph-name="Umacron" unicode="&#x16a;" horiz-adv-x="1251" 
d="M159 1472h193v-956q0 -211 65 -300q65 -88 204 -88q143 0 208 87q66 87 66 302v955h193v-934q0 -303 -117 -436q-116 -133 -344 -133q-238 0 -353 133t-115 436v934zM631 1663v0v0zM732 0v0v0zM0 1503v0v0zM349 1824h560v-113h-560v113zM631 1663v0v0z" />
    <glyph glyph-name="umacron" unicode="&#x16b;" 
d="M155 1040h168v-723q0 -212 173 -212q101 0 152 74t51 163v698h168v-857q0 -76 5 -183h-173v138q-79 -160 -270 -160q-128 0 -201 66q-73 67 -73 195v801zM502 1190v0v0zM816 0v0v0zM0 1062v0v0zM220 1351h560v-113h-560v113zM502 1190v0v0z" />
    <glyph glyph-name="Uring" unicode="&#x16e;" horiz-adv-x="1251" 
d="M159 1472h193v-956q0 -211 65 -300q65 -88 204 -88q143 0 208 87q66 87 66 302v955h193v-934q0 -303 -117 -436q-116 -133 -344 -133q-238 0 -353 133t-115 436v934zM631 1663v0v0zM732 0v0v0zM0 1503v0v0zM419 1858q0 86 61 147q62 61 150 61q91 0 150 -60
q60 -59 60 -151q0 -87 -62 -148q-62 -60 -149 -60t-149 56q-61 56 -61 155zM504 1856q0 -53 36 -90q37 -36 90 -36q52 0 88 36q37 37 37 91q0 52 -37 89t-89 37q-53 0 -89 -37t-36 -90zM631 1663v0v0z" />
    <glyph glyph-name="uring" unicode="&#x16f;" 
d="M155 1040h168v-723q0 -212 173 -212q101 0 152 74t51 163v698h168v-857q0 -76 5 -183h-173v138q-79 -160 -270 -160q-128 0 -201 66q-73 67 -73 195v801zM502 1190v0v0zM816 0v0v0zM0 1062v0v0zM290 1385q0 86 61 147q62 61 150 61q91 0 150 -60q60 -59 60 -151
q0 -87 -62 -148q-62 -60 -149 -60t-149 56q-61 56 -61 155zM375 1383q0 -53 36 -90q37 -36 90 -36q52 0 88 36q37 37 37 91q0 52 -37 89t-89 37q-53 0 -89 -37t-36 -90zM502 1190v0v0z" />
    <glyph glyph-name="Uhungarumlaut" unicode="&#x170;" horiz-adv-x="1251" 
d="M159 1472h193v-956q0 -211 65 -300q65 -88 204 -88q143 0 208 87q66 87 66 302v955h193v-934q0 -303 -117 -436q-116 -133 -344 -133q-238 0 -353 133t-115 436v934zM631 1663v0v0zM732 0v0v0zM0 1503v0v0zM316 1663l176 288h224l-262 -288h-138zM684 1663l176 288h224
l-262 -288h-138zM631 1663v0v0z" />
    <glyph glyph-name="uhungarumlaut" unicode="&#x171;" 
d="M155 1040h168v-723q0 -212 173 -212q101 0 152 74t51 163v698h168v-857q0 -76 5 -183h-173v138q-79 -160 -270 -160q-128 0 -201 66q-73 67 -73 195v801zM502 1190v0v0zM816 0v0v0zM0 1062v0v0zM187 1190l176 288h224l-262 -288h-138zM555 1190l176 288h224l-262 -288
h-138zM502 1190v0v0z" />
    <glyph glyph-name="Uogonek" unicode="&#x172;" horiz-adv-x="1251" 
d="M159 1472h193v-956q0 -211 65 -300q65 -88 204 -88q143 0 208 87q66 87 66 302v955h193v-934q0 -303 -117 -436q-116 -133 -344 -133q-238 0 -353 133t-115 436v934zM631 1663v0v0zM732 0v0v0zM0 1503v0v0zM648 0h127q-200 -81 -200 -174q0 -44 25 -71q25 -26 70 -26
q29 0 74 10q45 11 103 33v-111q-108 -45 -217 -45q-97 0 -160 48q-63 49 -63 129q0 75 79 129q80 55 162 78zM732 0v0v0z" />
    <glyph glyph-name="uogonek" unicode="&#x173;" 
d="M155 1040h168v-723q0 -212 173 -212q101 0 152 74t51 163v698h168v-857q0 -76 5 -183h-173v138q-79 -160 -270 -160q-128 0 -201 66q-73 67 -73 195v801zM502 1190v0v0zM816 0v0v0zM0 1062v0v0zM732 0h127q-200 -81 -200 -174q0 -44 25 -71q25 -26 70 -26q29 0 74 10
q45 11 103 33v-111q-108 -45 -217 -45q-97 0 -160 48q-63 49 -63 129q0 75 79 129q80 55 162 78zM816 0v0v0z" />
    <glyph glyph-name="Ydieresis" unicode="&#x178;" 
d="M16 1472h211l293 -713v0l300 713h189l-400 -908v-564h-193v564zM575 1663v0v0zM0 1503v0v0zM304 1892h189v-213h-189v213zM653 1892h189v-213h-189v213zM575 1663v0v0z" />
    <glyph glyph-name="Zacute" unicode="&#x179;" 
d="M48 0v213l719 1095v0h-695v164h888v-190l-735 -1118v0h750v-164h-927zM516 1663v0v0zM0 1503v0v0zM341 1663l176 288h224l-262 -288h-138zM516 1663v0v0z" />
    <glyph glyph-name="zacute" unicode="&#x17a;" horiz-adv-x="797" 
d="M71 0v158l454 745v0h-430v137h616v-154l-459 -749v0h472v-137h-653zM429 1190v0v0zM0 1062v0v0zM254 1190l176 288h224l-262 -288h-138zM429 1190v0v0z" />
    <glyph glyph-name="Zdotaccent" unicode="&#x17b;" 
d="M48 0v213l719 1095v0h-695v164h888v-190l-735 -1118v0h750v-164h-927zM516 1663v0v0zM0 1503v0v0zM418 1892h191v-213h-191v213zM516 1663v0v0z" />
    <glyph glyph-name="zdotaccent" unicode="&#x17c;" horiz-adv-x="797" 
d="M71 0v158l454 745v0h-430v137h616v-154l-459 -749v0h472v-137h-653zM429 1190v0v0zM0 1062v0v0zM331 1419h191v-213h-191v213zM429 1190v0v0z" />
    <glyph glyph-name="Zcaron" unicode="&#x17d;" 
d="M48 0v213l719 1095v0h-695v164h888v-190l-735 -1118v0h750v-164h-927zM516 1663v0v0zM0 1503v0v0zM802 1951l-208 -288h-189l-208 288h165l137 -192v0l138 192h165zM516 1663v0v0z" />
    <glyph glyph-name="zcaron" unicode="&#x17e;" horiz-adv-x="797" 
d="M71 0v158l454 745v0h-430v137h616v-154l-459 -749v0h472v-137h-653zM429 1190v0v0zM0 1062v0v0zM715 1478l-208 -288h-189l-208 288h165l137 -192v0l138 192h165zM429 1190v0v0z" />
    <glyph glyph-name="florin" unicode="&#x192;" horiz-adv-x="909" 
d="M71 -350v0l24 137q4 -2 12 -2h15q106 0 125 115l140 905v0h-188l24 127h184v0l31 196q53 312 308 312q43 0 93 -8l-24 -137q-27 8 -51 8q-136 0 -167 -189l-30 -182v0h208l-18 -127h-208v0l-142 -918q-37 -239 -291 -239h-23q-18 0 -22 2z" />
    <glyph glyph-name="circumflex" unicode="&#x2c6;" horiz-adv-x="569" 
d="M-16 1184l208 288h189l208 -288h-165l-138 192v0l-137 -192h-165zM294 1184v0v0z" />
    <glyph glyph-name="caron" unicode="&#x2c7;" horiz-adv-x="569" 
d="M589 1472l-208 -288h-189l-208 288h165l137 -192v0l138 192h165zM303 1184v0v0z" />
    <glyph glyph-name="breve" unicode="&#x2d8;" horiz-adv-x="569" 
d="M496 1473h100q-19 -134 -99 -204q-79 -69 -210 -69q-301 0 -319 273h100q30 -160 216 -160q179 0 212 160zM284 1184v0v0z" />
    <glyph glyph-name="dotaccent" unicode="&#x2d9;" horiz-adv-x="569" 
d="M192 1413h191v-213h-191v213zM290 1184v0v0z" />
    <glyph glyph-name="ring" unicode="&#x2da;" horiz-adv-x="569" 
d="M80 1379q0 86 61 147q62 61 150 61q91 0 150 -60q60 -59 60 -151q0 -87 -62 -148q-62 -60 -149 -60t-149 56q-61 56 -61 155zM165 1377q0 -53 36 -90q37 -36 90 -36q52 0 88 36q37 37 37 91q0 52 -37 89t-89 37q-53 0 -89 -37t-36 -90zM292 1184v0v0z" />
    <glyph glyph-name="ogonek" unicode="&#x2db;" horiz-adv-x="569" 
d="M305 0h127q-200 -81 -200 -174q0 -44 25 -71q25 -26 70 -26q29 0 74 10q45 11 103 33v-111q-108 -45 -217 -45q-97 0 -160 48q-63 49 -63 129q0 75 79 129q80 55 162 78zM389 0v0v0z" />
    <glyph glyph-name="tilde" unicode="&#x2dc;" horiz-adv-x="569" 
d="M-64 1178q14 109 66 164t147 55q58 0 151 -38q94 -38 135 -38q48 0 72 24q24 25 28 69h103q-7 -95 -67 -159t-144 -64q-50 0 -153 38t-146 38q-38 0 -66 -27t-32 -62h-94zM290 1184v0v0z" />
    <glyph glyph-name="hungarumlaut" unicode="&#x2dd;" horiz-adv-x="909" 
d="M80 1184l176 288h224l-262 -288h-138zM448 1184l176 288h224l-262 -288h-138zM395 1184v0v0z" />
    <glyph glyph-name="endash" unicode="&#x2013;" 
d="M0 612h1024v-113h-1024v113z" />
    <glyph glyph-name="emdash" unicode="&#x2014;" horiz-adv-x="2048" 
d="M0 612h2048v-113h-2048v113z" />
    <glyph glyph-name="quoteleft" unicode="&#x2018;" horiz-adv-x="455" 
d="M389 1472l-81 -400h-223l163 400h141z" />
    <glyph glyph-name="quoteright" unicode="&#x2019;" horiz-adv-x="455" 
d="M64 1072l81 400h223l-163 -400h-141z" />
    <glyph glyph-name="quotesinglbase" unicode="&#x201a;" horiz-adv-x="455" 
d="M64 -224l81 400h223l-163 -400h-141z" />
    <glyph glyph-name="quotedblleft" unicode="&#x201c;" horiz-adv-x="909" 
d="M780 1472l-81 -400h-223l163 400h141zM444 1472l-81 -400h-223l163 400h141z" />
    <glyph glyph-name="quotedblright" unicode="&#x201d;" horiz-adv-x="909" 
d="M129 1072l81 400h223l-163 -400h-141zM465 1072l81 400h223l-163 -400h-141z" />
    <glyph glyph-name="quotedblbase" unicode="&#x201e;" horiz-adv-x="909" 
d="M129 -224l81 400h223l-163 -400h-141zM465 -224l81 400h223l-163 -400h-141z" />
    <glyph glyph-name="dagger" unicode="&#x2020;" horiz-adv-x="909" 
d="M81 1168h288v304h168v-304h288v-136h-288v-1032h-168v1032h-288v136z" />
    <glyph glyph-name="daggerdbl" unicode="&#x2021;" horiz-adv-x="909" 
d="M80 1168h288v304h168v-304h288v-136h-288v-589h288v-136h-288v-304h-168v304h-288v136h288v589h-288v136z" />
    <glyph glyph-name="bullet" unicode="&#x2022;" horiz-adv-x="682" 
d="M29 739q0 127 91 219q91 93 221 93q127 0 219 -93q93 -92 93 -219q0 -130 -93 -221q-92 -91 -219 -91q-130 0 -221 91t-91 221z" />
    <glyph glyph-name="ellipsis" unicode="&#x2026;" horiz-adv-x="2048" 
d="M247 213h193v-213h-193v213zM935 213h193v-213h-193v213zM1623 0v213h193v-213h-193z" />
    <glyph glyph-name="perthousand" unicode="&#x2030;" horiz-adv-x="1821" 
d="M194 -74l704 1632h128l-704 -1632h-128zM720 343q0 190 47 270q48 81 185 81q128 0 180 -75q52 -74 52 -273q0 -225 -60 -301q-59 -75 -170 -75q-121 0 -178 77q-56 77 -56 296zM848 316q0 -125 26 -179q27 -53 82 -53q50 0 75 51q25 52 25 181q0 168 -19 215t-81 47
q-60 0 -84 -46t-24 -216zM1309 343q0 194 49 272q49 79 183 79q128 0 180 -75q52 -74 52 -273q0 -225 -63 -306q-56 -70 -167 -70q-121 0 -178 77q-56 77 -56 296zM1437 316q0 -112 24 -172t84 -60q53 0 76 58q24 58 24 174q0 160 -19 211t-81 51q-64 0 -86 -51t-22 -211z
M48 1155q0 187 47 269q48 82 185 82q128 0 180 -75q52 -74 52 -273q0 -225 -60 -301q-59 -75 -170 -75q-121 0 -178 77q-56 77 -56 296zM176 1128q0 -131 28 -182q28 -50 80 -50q46 0 73 49q27 50 27 183q0 179 -24 220q-23 42 -76 42q-57 0 -83 -47q-25 -47 -25 -215z" />
    <glyph glyph-name="guilsinglleft" unicode="&#x2039;" horiz-adv-x="455" 
d="M47 558l193 -400h159l-169 397l169 403h-156z" />
    <glyph glyph-name="guilsinglright" unicode="&#x203a;" horiz-adv-x="455" 
d="M412 558l-193 -400h-159l169 397l-169 403h156z" />
    <glyph glyph-name="foursuperior" unicode="&#x2074;" horiz-adv-x="545" 
d="M-16 879l262 545h202v-534h109v-115h-109v-199h-143v199h-321v104zM115 890v0h190v415v0z" />
    <glyph glyph-name="Euro" unicode="&#x20ac;" horiz-adv-x="909" 
d="M361 903h336l-42 -131h-294v-112v0h256l-42 -131h-214v-109q0 -180 45 -237q46 -56 137 -56q90 0 124 58t34 198h188q0 -120 -10 -173q-22 -110 -101 -175q-78 -65 -255 -65q-189 0 -270 98q-80 98 -80 319v142h-152l39 131h113v0v112h-152l39 131h113v55q0 265 81 376
q81 112 286 112q185 0 261 -74q76 -73 79 -237v-54h-188v35q0 95 -31 134t-123 39q-88 0 -133 -49q-44 -48 -44 -253v-84z" />
    <glyph glyph-name="trademark" unicode="&#x2122;" horiz-adv-x="1690" 
d="M240 592v765h-244v115h631v-115h-244v-765h-143zM730 592v880h226l225 -660v0l212 660h222v-880h-143v705l-241 -705h-117l-241 708v-708h-143z" />
    <glyph glyph-name="partialdiff" unicode="&#x2202;" horiz-adv-x="1012" 
d="M767 690q24 120 24 243q0 224 -94 366q-93 142 -257 142q-106 0 -229 -70l-79 103q144 58 268 58q250 0 399 -207q150 -207 150 -508q0 -344 -132 -603t-376 -259q-164 0 -276 116q-112 117 -112 283q0 183 115 329t284 146t315 -139zM752 617q-97 133 -221 133
q-117 0 -210 -126q-92 -125 -92 -326q0 -150 54 -216q55 -65 130 -65q127 0 213 144q87 144 126 456z" />
    <glyph glyph-name="Delta" unicode="&#x2206;" horiz-adv-x="1253" 
d="M11 0l656 1407l576 -1407h-1232zM145 100v0h845v0l-399 955z" />
    <glyph glyph-name="summation" unicode="&#x2211;" horiz-adv-x="1460" 
d="M29 -203l713 822l-713 932q157 -19 212 -19h1023l13 -320h-40q-36 138 -102 183q-65 45 -213 45h-543v0l562 -735l-598 -697v0h752q108 0 166 42t112 185h48q-64 -222 -88 -451q-39 8 -95 13q-55 6 -83 6h-1007q-40 0 -119 -6z" />
    <glyph glyph-name="minus" unicode="&#x2212;" 
d="M96 453v127h848v-127h-848z" />
    <glyph glyph-name="fraction" unicode="&#x2215;" horiz-adv-x="342" 
d="M-336 -52l896 1535h128l-896 -1535h-128z" />
    <glyph glyph-name="radical" unicode="&#x221a;" horiz-adv-x="1124" 
d="M989 1886l71 -10l-309 -1949l-499 1025l-198 -93l-34 67l301 147l406 -824z" />
    <glyph glyph-name="notequal" unicode="&#x2260;" 
d="M87 787h472v0l88 224v0h127l-88 -224v0h249v-127h-299v0l-107 -272v0h406v-127h-454v0l-90 -224v0h-127l90 224v0h-267v127h315v0l106 272v0h-421v127z" />
    <glyph glyph-name="lessequal" unicode="&#x2264;" 
d="M87 127v-127h848v127h-848zM87 855v-131l848 -480v149l-689 397l689 396v149z" />
    <glyph glyph-name="greaterequal" unicode="&#x2265;" 
d="M937 127v-127h-848v127h848zM937 855v-131l-848 -480v149l689 397l-689 396v149z" />
    <glyph glyph-name="lozenge" unicode="&#x25ca;" horiz-adv-x="1012" 
d="M567 1520l400 -748l-400 -772h-128l-400 772l400 748h128zM503 1412l-336 -642l336 -662l336 662z" />
    <glyph glyph-name="unif001" unicode="&#xf001;" 
d="M19 1040h160v175q0 135 68 196q69 61 235 61q36 0 73 -6v-123q-5 2 -39 2q-169 0 -169 -135v-170h208v-127h-208v-913h-168v913h-160v127zM707 1040h168v-1040h-168v1040zM696 1493h190v-181h-190v181z" />
    <glyph glyph-name="unif002" unicode="&#xf002;" 
d="M19 1040h160v175q0 135 68 196q69 61 235 61q36 0 73 -6v-123q-5 2 -39 2q-169 0 -169 -135v-170h208v-127h-208v-913h-168v913h-160v127zM707 0v1472h168v-1472h-168z" />
    <glyph glyph-name="unif151" unicode="&#xf151;" horiz-adv-x="455" 
d="M135 1286v186h189v-187q0 -218 -189 -271v83q104 18 104 189h-104z" />
    <glyph glyph-name="commaaccent" unicode="&#xf170;" horiz-adv-x="455" 
d="M144 -320v160h144v-155q0 -186 -144 -229v67q73 16 73 157h-73zM214 0v0v0z" />
    <glyph glyph-name="unif171" unicode="&#xf171;" horiz-adv-x="455" 
d="M288 1344v-160h-144v154q0 186 144 230v-70q-73 -17 -73 -154h73zM232 1184v0v0z" />
    <glyph glyph-name="Scommaaccent" unicode="&#xf24d;" horiz-adv-x="1139" 
d="M128 433h193v-52q0 -114 66 -181t195 -67q111 0 180 60t69 175q0 92 -69 158q-68 66 -241 152q-212 109 -287 202q-74 94 -74 224q0 179 115 289t322 110q205 0 308 -100t103 -275v-57h-193v0q0 268 -229 268q-109 0 -171 -58t-62 -156q0 -103 94 -182q58 -50 234 -138
q177 -88 253 -179q90 -108 90 -251q0 -406 -473 -406q-202 0 -313 105q-110 106 -110 305v54zM609 1663v0v0zM561 0v0v0zM491 -320v160h144v-155q0 -186 -144 -229v67q73 16 73 157h-73zM561 0v0v0z" />
    <glyph glyph-name="scommaaccent" unicode="&#xf24e;" horiz-adv-x="909" 
d="M104 314h192v0q0 -199 165 -199q87 0 133 37q46 38 46 118q0 56 -52 95q-52 40 -156 87q-146 66 -225 140q-79 75 -79 179q0 137 95 214t263 77q157 0 241 -68q84 -67 84 -163v-57h-192v0q0 161 -154 161q-70 0 -114 -38t-44 -104q0 -60 78 -107q78 -46 156 -80
q132 -62 205 -132t73 -174q0 -322 -358 -322q-357 0 -357 336v0zM507 1190v0v0zM446 0v0v0zM376 -320v160h144v-155q0 -186 -144 -229v67q73 16 73 157h-73zM446 0v0v0z" />
    <glyph glyph-name="fi" unicode="&#xfb01;" 
d="M19 1040h160v175q0 135 68 196q69 61 235 61q36 0 73 -6v-123q-5 2 -39 2q-169 0 -169 -135v-170h208v-127h-208v-913h-168v913h-160v127zM707 1040h168v-1040h-168v1040zM696 1493h190v-181h-190v181z" />
    <glyph glyph-name="fl" unicode="&#xfb02;" 
d="M19 1040h160v175q0 135 68 196q69 61 235 61q36 0 73 -6v-123q-5 2 -39 2q-169 0 -169 -135v-170h208v-127h-208v-913h-168v913h-160v127zM707 0v1472h168v-1472h-168z" />
  </font>
</defs>
</svg>
